Casino Royale (2006)

PG-13 | 2h 24min | Action, Adventure, Thriller | 17 November 2006 (USA)

After earning 00 status and a licence to kill, Secret Agent James Bond sets out on his first mission as 007. Bond must defeat a private banker funding terrorists in a high-stakes game of poker at Casino Royale, Montenegro.

Watch trailer

Media information

General
Format : Matroska
Format version : Version 4
File size : 2.55 GiB
Duration : 2 h 24 min
Overall bit rate : 2 530 kb/s
Movie name : Casino.Royale.2006.REMASTERED.1080p.10bit.BluRay.6CH.x265.HEVC

Video
ID : 1
Format : HEVC
Format/Info : High Efficiency Video Coding
Format profile : Main [email protected]@Main
Codec ID : V_MPEGH/ISO/HEVC
Duration : 2 h 24 min
Bit rate : 2 143 kb/s
Width : 1 920 pixels
Height : 802 pixels
Display aspect ratio : 2.40:1
Frame rate mode : Variable
Frame rate : 23.976 FPS
Color space : YUV
Chroma subsampling : 4:2:0 (Type 0)
Bit depth : 10 bits
Bits/(Pixel*Frame) : 0.058
Stream size : 2.16 GiB (85%)
Default : Yes
Forced : No
Color range : Limited

Audio
ID : 2
Format : AAC LC
Codec ID : A_AAC-2
Duration : 2 h 24 min
Bit rate : 384 kb/s
Channel(s) : 6 channels
Channel layout : L R C Cb Lb Rb
Sampling rate : 48.0 kHz
Frame rate : 46.875 FPS (1024 SPF)
Compression mode : Lossy
Stream size : 398 MiB (15%)
Language : English
Default : Yes
Forced : No

Text
ID : 3
Format : UTF-8
Codec ID : S_TEXT/UTF8
Codec ID/Info : UTF-8 Plain Text
Duration : 2 h 19 min
Bit rate : 32 b/s
Count of elements : 1040
Stream size : 33.4 KiB (0%)
Language : English
Default : Yes
Forced : No

[collapse]
Download Link(s)

Download

Direct download files get automatically deleted after a month or so. Posted on: 10/09/2021

[collapse]
Magnet Link

Magnet

Casino.Royale.2006.REMASTERED.1080p.BluRay.x264.DTS-SWTYBLZ-15.73 GB

[collapse]

Media information

General
Format : Matroska
Format version : Version 4
File size : 1.66 GiB
Duration : 2 h 24 min
Overall bit rate : 1 648 kb/s
Movie name : Casino.Royale.2006.REMASTERED.720p.10bit.BluRay.6CH.x265.HEVC

Video
ID : 1
Format : HEVC
Format/Info : High Efficiency Video Coding
Format profile : Main [email protected]@Main
Codec ID : V_MPEGH/ISO/HEVC
Duration : 2 h 24 min
Bit rate : 1 357 kb/s
Width : 1 280 pixels
Height : 536 pixels
Display aspect ratio : 2.40:1
Frame rate mode : Variable
Frame rate : 23.976 FPS
Color space : YUV
Chroma subsampling : 4:2:0 (Type 0)
Bit depth : 10 bits
Bits/(Pixel*Frame) : 0.083
Stream size : 1.37 GiB (82%)
Default : Yes
Forced : No
Color range : Limited

Audio
ID : 2
Format : AAC LC
Codec ID : A_AAC-2
Duration : 2 h 24 min
Bit rate : 288 kb/s
Channel(s) : 6 channels
Channel layout : L R C Cb Lb Rb
Sampling rate : 48.0 kHz
Frame rate : 46.875 FPS (1024 SPF)
Compression mode : Lossy
Stream size : 299 MiB (18%)
Language : English
Default : Yes
Forced : No

Text
ID : 3
Format : UTF-8
Codec ID : S_TEXT/UTF8
Codec ID/Info : UTF-8 Plain Text
Duration : 2 h 19 min
Bit rate : 32 b/s
Count of elements : 1040
Stream size : 33.4 KiB (0%)
Language : English
Default : Yes
Forced : No

[collapse]
Download Link(s)

Download

Direct download files get automatically deleted after a month or so. Posted on: 10/09/2021

[collapse]
Magnet Link

Magnet

Casino.Royale.2006.REMASTERED.1080p.BluRay.x264.DTS-SWTYBLZ-15.73 GB

[collapse]

You may also like...

error: nah :p~