Casino Royale (1967)

Approved | 2h 11min | Comedy | 28 April 1967 (USA)

In an early spy spoof, aging Sir James Bond comes out of retirement to take on SMERSH.

Watch trailer

Media information

General
Format : Matroska
Format version : Version 4
File size : 2.32 GiB
Duration : 2 h 11 min
Overall bit rate : 2 531 kb/s
Movie name : Casino.Royale.1966.1080p.10bit.BluRay.6CH.x265.HEVC

Video
ID : 1
Format : HEVC
Format/Info : High Efficiency Video Coding
Format profile : Main [email protected]@Main
Codec ID : V_MPEGH/ISO/HEVC
Duration : 2 h 11 min
Bit rate : 2 144 kb/s
Width : 1 920 pixels
Height : 824 pixels
Display aspect ratio : 2.35:1
Frame rate mode : Variable
Frame rate : 23.976 FPS
Color space : YUV
Chroma subsampling : 4:2:0 (Type 0)
Bit depth : 10 bits
Bits/(Pixel*Frame) : 0.057
Stream size : 1.96 GiB (85%)
Default : Yes
Forced : No
Color range : Limited

Audio
ID : 2
Format : AAC LC
Codec ID : A_AAC-2
Duration : 2 h 11 min
Bit rate : 384 kb/s
Channel(s) : 6 channels
Channel layout : L R C Cb Lb Rb
Sampling rate : 48.0 kHz
Frame rate : 46.875 FPS (1024 SPF)
Compression mode : Lossy
Stream size : 361 MiB (15%)
Language : English
Default : Yes
Forced : No

Text
ID : 3
Format : UTF-8
Codec ID : S_TEXT/UTF8
Codec ID/Info : UTF-8 Plain Text
Duration : 2 h 10 min
Bit rate : 59 b/s
Count of elements : 1435
Stream size : 57.1 KiB (0%)
Language : English
Default : Yes
Forced : No

[collapse]
Download Link(s)

Download

Direct download files get automatically deleted after a month or so. Posted on : 12/02/2021

[collapse]
Magnet Link

Magnet

Casino.Royale.1967.1080p.BluRay.x264-CiNEFiLE- 8.75 GB

[collapse]

Media information

General
Format : Matroska
Format version : Version 4
File size : 1.52 GiB
Duration : 2 h 11 min
Overall bit rate : 1 655 kb/s
Movie name : Casino.Royale.1966.720p.10bit.BluRay.6CH.x265.HEVC

Video
ID : 1
Format : HEVC
Format/Info : High Efficiency Video Coding
Format profile : Main [email protected][email protected]
Codec ID : V_MPEGH/ISO/HEVC
Duration : 2 h 11 min
Bit rate : 1 364 kb/s
Width : 1 280 pixels
Height : 552 pixels
Display aspect ratio : 2.35:1
Frame rate mode : Variable
Frame rate : 23.976 FPS
Color space : YUV
Chroma subsampling : 4:2:0 (Type 0)
Bit depth : 10 bits
Bits/(Pixel*Frame) : 0.081
Stream size : 1.25 GiB (82%)
Default : Yes
Forced : No
Color range : Limited

Audio
ID : 2
Format : AAC LC
Codec ID : A_AAC-2
Duration : 2 h 11 min
Bit rate : 288 kb/s
Channel(s) : 6 channels
Channel layout : L R C Cb Lb Rb
Sampling rate : 48.0 kHz
Frame rate : 46.875 FPS (1024 SPF)
Compression mode : Lossy
Stream size : 271 MiB (17%)
Language : English
Default : Yes
Forced : No

Text
ID : 3
Format : UTF-8
Codec ID : S_TEXT/UTF8
Codec ID/Info : UTF-8 Plain Text
Duration : 2 h 10 min
Bit rate : 59 b/s
Count of elements : 1435
Stream size : 57.1 KiB (0%)
Language : English
Default : Yes
Forced : No

[collapse]
Download Link(s)

Download

Direct download files get automatically deleted after a month or so. Posted on : 12/02/2021

[collapse]
Magnet Link

Magnet

Casino.Royale.1967.1080p.BluRay.x264-CiNEFiLE- 8.75 GB

[collapse]

You may also like...

error: nah :p~