Candyman: Day of the Dead (1999)

R | 1h 33min | Horror, Thriller

The Candyman is back, trying to convince his descendent, an artist, to join him.

Watch trailer

Media information

General
Format : Matroska
Format version : Version 4
File size : 1.43 GiB
Duration : 1 h 33 min
Overall bit rate : 2 192 kb/s
Movie name : Candyman.3.Day.of.the.dead.1999.1080p.10bit.BluRay.2CH.x265.HEVC

Video
ID : 1
Format : HEVC
Format/Info : High Efficiency Video Coding
Format profile : Main [email protected]@Main
Codec ID : V_MPEGH/ISO/HEVC
Duration : 1 h 33 min
Bit rate : 1 865 kb/s
Width : 1 920 pixels
Height : 1 032 pixels
Display aspect ratio : 1.85:1
Frame rate mode : Variable
Frame rate : 23.976 FPS
Color space : YUV
Chroma subsampling : 4:2:0 (Type 0)
Bit depth : 10 bits
Bits/(Pixel*Frame) : 0.039
Stream size : 1.22 GiB (85%)
Default : Yes
Forced : No
Color range : Limited

Audio
ID : 2
Format : AAC LC
Codec ID : A_AAC-2
Duration : 1 h 33 min
Bit rate : 321 kb/s
Channel(s) : 2 channels
Channel layout : L R
Sampling rate : 48.0 kHz
Frame rate : 46.875 FPS (1024 SPF)
Compression mode : Lossy
Stream size : 214 MiB (15%)
Language : English
Default : Yes
Forced : No

Text
ID : 3
Format : VobSub
Muxing mode : zlib
Codec ID : S_VOBSUB
Duration : 1 h 22 min
Bit rate : 5 192 b/s
Count of elements : 948
Stream size : 3.08 MiB (0%)
Language : English
Default : Yes
Forced : No

[collapse]
Download Link(s)

Download

Direct download files get automatically deleted after a month or so. Posted on : 07/19/2021

[collapse]
Magnet Link

Magnet

Candyman.3.Day.Of.The.Dead.1999.1080p.BluRay.x264-GETiT-6.56 GB

[collapse]

Media information

General
Format : Matroska
Format version : Version 4
File size : 772 MiB
Duration : 1 h 33 min
Overall bit rate : 1 157 kb/s
Movie name : Candyman.3.Day.of.the.dead.1999.720p.10bit.BluRay.2CH.x265.HEVC

Video
ID : 1
Format : HEVC
Format/Info : High Efficiency Video Coding
Format profile : Main [email protected]@Main
Codec ID : V_MPEGH/ISO/HEVC
Duration : 1 h 33 min
Bit rate : 863 kb/s
Width : 1 280 pixels
Height : 688 pixels
Display aspect ratio : 1.85:1
Frame rate mode : Variable
Frame rate : 23.976 FPS
Color space : YUV
Chroma subsampling : 4:2:0 (Type 0)
Bit depth : 10 bits
Bits/(Pixel*Frame) : 0.041
Stream size : 576 MiB (75%)
Default : Yes
Forced : No
Color range : Limited

Audio
ID : 2
Format : AAC LC
Codec ID : A_AAC-2
Duration : 1 h 33 min
Bit rate : 288 kb/s
Channel(s) : 2 channels
Channel layout : L R
Sampling rate : 48.0 kHz
Frame rate : 46.875 FPS (1024 SPF)
Compression mode : Lossy
Stream size : 193 MiB (25%)
Language : English
Default : Yes
Forced : No

Text
ID : 3
Format : VobSub
Muxing mode : zlib
Codec ID : S_VOBSUB
Duration : 1 h 22 min
Bit rate : 5 192 b/s
Count of elements : 948
Stream size : 3.08 MiB (0%)
Language : English
Default : Yes
Forced : No

[collapse]
Download Link(s)

Download

Direct download files get automatically deleted after a month or so. Posted on : 07/19/2021

[collapse]
Magnet Link

Magnet

Candyman.3.Day.Of.The.Dead.1999.1080p.BluRay.x264-GETiT-6.56 GB

[collapse]

You may also like...

error: nah :p~