Breaking Surface (2020)

1h 22min | Action, Drama, Thriller | 15 December 2020 (USA)

A winter diving trip in Norway turns into a desperate race against time for two sisters when one of them becomes trapped at the bottom of the ocean by falling rocks.

Watch trailer

Media information

General
Format : Matroska
Format version : Version 4
File size : 1.13 GiB
Duration : 1 h 21 min
Overall bit rate : 1 984 kb/s
Movie name : Breaking.Surface.2020.SWEDISH.1080p.10bit.BluRay.6CH.x265.HEVC

Video
ID : 1
Format : HEVC
Format/Info : High Efficiency Video Coding
Format profile : Main 10@L4@Main
Codec ID : V_MPEGH/ISO/HEVC
Duration : 1 h 21 min
Bit rate : 1 757 kb/s
Width : 1 920 pixels
Height : 808 pixels
Display aspect ratio : 2.40:1
Frame rate mode : Constant
Frame rate : 24.000 FPS
Color space : YUV
Chroma subsampling : 4:2:0
Bit depth : 10 bits
Bits/(Pixel*Frame) : 0.047
Stream size : 1 023 MiB (89%)
Default : Yes
Forced : No
Color range : Limited
Color primaries : BT.709
Transfer characteristics : BT.709
Matrix coefficients : BT.709

Audio
ID : 2
Format : AAC LC
Codec ID : A_AAC-2
Duration : 1 h 21 min
Bit rate : 224 kb/s
Channel(s) : 6 channels
Channel layout : C L R Ls Rs LFE
Sampling rate : 48.0 kHz
Frame rate : 46.875 FPS (1024 SPF)
Compression mode : Lossy
Delay relative to video : 62 ms
Stream size : 130 MiB (11%)
Language : Swedish
Default : Yes
Forced : No

Text
ID : 3
Format : UTF-8
Codec ID : S_TEXT/UTF8
Codec ID/Info : UTF-8 Plain Text
Duration : 1 h 11 min
Bit rate : 30 b/s
Count of elements : 486
Stream size : 15.8 KiB (0%)
Language : English
Default : Yes
Forced : No

[collapse]
Download Link(s)

Download

Direct download files get automatically deleted after a month or so. Posted on : 02/05/2021

[collapse]
Magnet Link

Magnet

Breaking.Surface.2020.SWEDISH.1080p.BluRay.x264.DTS-NOGRP-6.54 GB

[collapse]

Media information

General
Format : Matroska
Format version : Version 4
File size : 595 MiB
Duration : 1 h 21 min
Overall bit rate : 1 022 kb/s
Movie name : Breaking.Surface.2020.SWEDISH.720p.10bit.BluRay.6CH.x265.HEVC

Video
ID : 1
Format : HEVC
Format/Info : High Efficiency Video Coding
Format profile : Main [email protected]@Main
Codec ID : V_MPEGH/ISO/HEVC
Duration : 1 h 21 min
Bit rate : 828 kb/s
Width : 1 280 pixels
Height : 540 pixels
Display aspect ratio : 2.40:1
Frame rate mode : Constant
Frame rate : 24.000 FPS
Color space : YUV
Chroma subsampling : 4:2:0
Bit depth : 10 bits
Bits/(Pixel*Frame) : 0.050
Stream size : 482 MiB (81%)
Default : Yes
Forced : No
Color range : Limited
Color primaries : BT.709
Transfer characteristics : BT.709
Matrix coefficients : BT.709

Audio
ID : 2
Format : AAC LC
Codec ID : A_AAC-2
Duration : 1 h 21 min
Bit rate : 192 kb/s
Channel(s) : 6 channels
Channel layout : C L R Ls Rs LFE
Sampling rate : 48.0 kHz
Frame rate : 46.875 FPS (1024 SPF)
Compression mode : Lossy
Delay relative to video : 62 ms
Stream size : 112 MiB (19%)
Language : Swedish
Default : Yes
Forced : No

Text
ID : 3
Format : UTF-8
Codec ID : S_TEXT/UTF8
Codec ID/Info : UTF-8 Plain Text
Duration : 1 h 11 min
Bit rate : 30 b/s
Count of elements : 486
Stream size : 15.8 KiB (0%)
Language : English
Default : Yes
Forced : No

[collapse]
Download Link(s)

Download

Direct download files get automatically deleted after a month or so. Posted on : 02/05/2021

[collapse]
Magnet Link

Magnet

Breaking.Surface.2020.SWEDISH.1080p.BluRay.x264.DTS-NOGRP-6.54 GB

[collapse]

You may also like...

error: nah :p~