Black and Blue (2019)

R | 1h 48min | Action, Crime, Drama | 25 October 2019 (USA)

A rookie New Orleans police officer is forced to balance her identity as a black woman after she witnesses two corrupt cops committing murder.

Watch trailer

Media information

General
Format : Matroska
Format version : Version 4
File size : 1.85 GiB
Duration : 1 h 47 min
Overall bit rate : 2 459 kb/s
Movie name : Black.and.Blue.2019.1080p.10bit.BluRay.6CH.x265.HEVC
Encoded date : UTC 2020-01-13 12:16:51
Writing application : mkvmerge v42.0.0 (‘Overtime’) 32-bit
Writing library : libebml v1.3.10 + libmatroska v1.5.2

Video
ID : 1
Format : HEVC
Format/Info : High Efficiency Video Coding
Format profile : Main 10@L4@Main
Codec ID : V_MPEGH/ISO/HEVC
Duration : 1 h 47 min
Bit rate : 2 250 kb/s
Width : 1 920 pixels
Height : 808 pixels
Display aspect ratio : 2.40:1
Frame rate mode : Constant
Frame rate : 23.976 (24000/1001) FPS
Color space : YUV
Chroma subsampling : 4:2:0
Bit depth : 10 bits
Bits/(Pixel*Frame) : 0.060
Stream size : 1.70 GiB (91%)
Default : Yes
Forced : No

Audio
ID : 2
Format : AAC LC SBR
Commercial name : HE-AAC
Format settings : Explicit
Codec ID : A_AAC-2
Duration : 1 h 47 min
Bit rate : 207 kb/s
Channel(s) : 6 channels
Channel layout : C L R Ls Rs LFE
Sampling rate : 48.0 kHz
Frame rate : 23.438 FPS (2048 SPF)
Compression mode : Lossy
Delay relative to video : 23 ms
Stream size : 160 MiB (8%)
Language : English
Default : Yes
Forced : No

Text
ID : 3
Format : UTF-8
Codec ID : S_TEXT/UTF8
Codec ID/Info : UTF-8 Plain Text
Duration : 1 h 43 min
Bit rate : 50 b/s
Count of elements : 1454
Stream size : 38.3 KiB (0%)
Language : English
Default : Yes
Forced : No

[collapse]
Download Link(s)

Download

Direct download files get automatically deleted after a month or so. Posted on : 01/13/2020

[collapse]
Magnet Link

Magnet

Black.and.Blue.2019.1080p.BluRay.REMUX.AVC.DTS-HD.MA.5.1-FGT-24.79 GB

[collapse]

Media information

General
Format : Matroska
Format version : Version 4
File size : 926 MiB
Duration : 1 h 47 min
Overall bit rate : 1 199 kb/s
Movie name : Black.and.Blue.2019.720p.10bit.BluRay.6CH.x265.HEVC
Encoded date : UTC 2020-01-13 11:05:40
Writing application : mkvmerge v42.0.0 (‘Overtime’) 32-bit
Writing library : libebml v1.3.10 + libmatroska v1.5.2

Video
ID : 1
Format : HEVC
Format/Info : High Efficiency Video Coding
Format profile : Main [email protected]@Main
Codec ID : V_MPEGH/ISO/HEVC
Duration : 1 h 47 min
Bit rate : 990 kb/s
Width : 1 280 pixels
Height : 536 pixels
Display aspect ratio : 2.40:1
Frame rate mode : Constant
Frame rate : 23.976 (24000/1001) FPS
Color space : YUV
Chroma subsampling : 4:2:0
Bit depth : 10 bits
Bits/(Pixel*Frame) : 0.060
Stream size : 764 MiB (83%)
Default : Yes
Forced : No

Audio
ID : 2
Format : AAC LC SBR
Commercial name : HE-AAC
Format settings : Explicit
Codec ID : A_AAC-2
Duration : 1 h 47 min
Bit rate : 207 kb/s
Channel(s) : 6 channels
Channel layout : C L R Ls Rs LFE
Sampling rate : 48.0 kHz
Frame rate : 23.438 FPS (2048 SPF)
Compression mode : Lossy
Delay relative to video : 23 ms
Stream size : 160 MiB (17%)
Language : English
Default : Yes
Forced : No

Text
ID : 3
Format : UTF-8
Codec ID : S_TEXT/UTF8
Codec ID/Info : UTF-8 Plain Text
Duration : 1 h 43 min
Bit rate : 50 b/s
Count of elements : 1454
Stream size : 38.3 KiB (0%)
Language : English
Default : Yes
Forced : No

[collapse]
Download Link(s)

Download

Direct download files get automatically deleted after a month or so. Posted on : 01/13/2020

[collapse]
Magnet Link

Magnet

Black.and.Blue.2019.1080p.BluRay.REMUX.AVC.DTS-HD.MA.5.1-FGT-24.79 GB

[collapse]

Media information

General
Format : Matroska
Format version : Version 4
File size : 729 MiB
Duration : 1 h 47 min
Overall bit rate : 944 kb/s
Movie name : Black.and.Blue.2019.720p.WEBRip.2CH.x265.HEVC
Encoded date : UTC 2019-12-30 16:59:18
Writing application : mkvmerge v41.0.0 (‘Smarra’) 32-bit
Writing library : libebml v1.3.9 + libmatroska v1.5.2

Video
ID : 1
Format : HEVC
Format/Info : High Efficiency Video Coding
Format profile : [email protected]@Main
Codec ID : V_MPEGH/ISO/HEVC
Duration : 1 h 47 min
Bit rate : 869 kb/s
Width : 1 280 pixels
Height : 528 pixels
Display aspect ratio : 2.40:1
Frame rate mode : Constant
Frame rate : 23.976 (24000/1001) FPS
Color space : YUV
Chroma subsampling : 4:2:0
Bit depth : 8 bits
Bits/(Pixel*Frame) : 0.054
Stream size : 671 MiB (92%)
Default : Yes
Forced : No
Color range : Limited
Color primaries : BT.709
Transfer characteristics : BT.709
Matrix coefficients : BT.709

Audio
ID : 2
Format : AAC LC SBR
Commercial name : HE-AAC
Format settings : Explicit
Codec ID : A_AAC-2
Duration : 1 h 47 min
Bit rate : 72.0 kb/s
Channel(s) : 2 channels
Channel layout : L R
Sampling rate : 48.0 kHz
Frame rate : 23.438 FPS (2048 SPF)
Compression mode : Lossy
Delay relative to video : 23 ms
Stream size : 56.5 MiB (8%)
Language : English
Default : Yes
Forced : No

Text
ID : 3
Format : UTF-8
Codec ID : S_TEXT/UTF8
Codec ID/Info : UTF-8 Plain Text
Duration : 1 h 43 min
Bit rate : 50 b/s
Count of elements : 1453
Stream size : 38.2 KiB (0%)
Language : English
Default : Yes
Forced : No

[collapse]
Download Link(s)

Download

Direct download files get automatically deleted after a month or so. Posted on : 12/30/2019

[collapse]
Magnet Link

Magnet

Black.and.Blue.2019.1080p.WEB-DL.DD5.1.H264-FGT-3.83 GB

[collapse]

You may also like...

error: nah :p~