Big Gold Brick (2022)

2h 12min | Comedy, Fantasy

Big Gold Brick recounts the story of fledgling writer Samuel Liston and his experiences with Floyd Deveraux, the enigmatic, middle-aged father of two who enlists Samuel to write his biography. But the circumstances that lead up to this arrangement in the first place are quite astonishing-and efforts to write the biography are quickly stymied by ensuing chaos in this darkly comedic, genre-bending film.

Watch trailer

Media information

General
Format : Matroska
Format version : Version 4
File size : 1.37 GiB
Duration : 2 h 12 min
Overall bit rate : 1 490 kb/s
Movie name : Big.Gold.Brick.2022.1080p.WEBRip.6CH.x265.HEVC

Video
ID : 1
Format : HEVC
Format/Info : High Efficiency Video Coding
Format profile : Main@L4@Main
Codec ID : V_MPEGH/ISO/HEVC
Duration : 2 h 12 min
Bit rate : 1 301 kb/s
Width : 1 920 pixels
Height : 720 pixels
Display aspect ratio : 2.667
Frame rate mode : Constant
Frame rate : 23.976 (24000/1001) FPS
Color space : YUV
Chroma subsampling : 4:2:0
Bit depth : 8 bits
Bits/(Pixel*Frame) : 0.039
Stream size : 1.20 GiB (87%)
Default : Yes
Forced : No
Color range : Limited
Color primaries : BT.709
Transfer characteristics : BT.709
Matrix coefficients : BT.709

Audio
ID : 2
Format : AAC LC SBR
Commercial name : HE-AAC
Format settings : Explicit
Codec ID : A_AAC-2
Duration : 2 h 12 min
Bit rate : 186 kb/s
Channel(s) : 6 channels
Channel layout : C L R Ls Rs LFE
Sampling rate : 48.0 kHz
Frame rate : 23.438 FPS (2048 SPF)
Compression mode : Lossy
Delay relative to video : 23 ms
Stream size : 176 MiB (13%)
Language : English
Default : Yes
Forced : No

Text
ID : 3
Format : UTF-8
Codec ID : S_TEXT/UTF8
Codec ID/Info : UTF-8 Plain Text
Duration : 2 h 6 min
Bit rate : 50 b/s
Count of elements : 1371
Stream size : 46.9 KiB (0%)
Language : English
Default : Yes
Forced : No

[collapse]
Download Link(s)

Download

Direct download files get automatically deleted after a month or so. Posted on : 02/25/2022

[collapse]
Magnet Link

Magnet

Big.Gold.Brick.2022.1080p.WEBRip.DD5.1.x264-NOGRP-6.46 GB

[collapse]

Media information

General
Format : Matroska
Format version : Version 4
File size : 593 MiB
Duration : 2 h 12 min
Overall bit rate : 627 kb/s
Movie name : Big.Gold.Brick.2022.720p.WEBRip.2CH.x265.HEVC

Video
ID : 1
Format : HEVC
Format/Info : High Efficiency Video Coding
Format profile : [email protected]@Main
Codec ID : V_MPEGH/ISO/HEVC
Duration : 2 h 12 min
Bit rate : 558 kb/s
Width : 1 280 pixels
Height : 480 pixels
Display aspect ratio : 2.667
Frame rate mode : Constant
Frame rate : 23.976 (24000/1001) FPS
Color space : YUV
Chroma subsampling : 4:2:0
Bit depth : 8 bits
Bits/(Pixel*Frame) : 0.038
Stream size : 528 MiB (89%)
Default : Yes
Forced : No
Color range : Limited
Color primaries : BT.709
Transfer characteristics : BT.709
Matrix coefficients : BT.709

Audio
ID : 2
Format : AAC LC SBR
Commercial name : HE-AAC
Format settings : Explicit
Codec ID : A_AAC-2
Duration : 2 h 12 min
Bit rate : 66.2 kb/s
Channel(s) : 2 channels
Channel layout : L R
Sampling rate : 48.0 kHz
Frame rate : 23.438 FPS (2048 SPF)
Compression mode : Lossy
Delay relative to video : 23 ms
Stream size : 63.5 MiB (11%)
Language : English
Default : Yes
Forced : No

Text
ID : 3
Format : UTF-8
Codec ID : S_TEXT/UTF8
Codec ID/Info : UTF-8 Plain Text
Duration : 2 h 6 min
Bit rate : 50 b/s
Count of elements : 1371
Stream size : 46.9 KiB (0%)
Language : English
Default : Yes
Forced : No

[collapse]
Download Link(s)

Download

Direct download files get automatically deleted after a month or so. Posted on : 02/25/2022

[collapse]
Magnet Link

Magnet

Big.Gold.Brick.2022.1080p.WEBRip.DD5.1.x264-NOGRP-6.46 GB

[collapse]

You may also like...

error: nah :p~