Bhuj: The Pride of India (2021)

2h 34min | Action, Drama, History

Bhuj the pride of India is a story about 300 Gujarati women who helped the Indian Airforce during Bangladesh and Pakistan War

Watch trailer

Media information

General
Format : Matroska
Format version : Version 4
File size : 850 MiB
Duration : 1 h 53 min
Overall bit rate : 1 048 kb/s
Movie name : Bhuj.The.Pride.of.India.2021.Hindi.720p.10bit.WEB-DL.6CH.x265.HEVC

Video
ID : 1
Format : HEVC
Format/Info : High Efficiency Video Coding
Format profile : Main [email protected]@Main
Codec ID : V_MPEGH/ISO/HEVC
Duration : 1 h 53 min
Bit rate : 854 kb/s
Width : 1 280 pixels
Height : 720 pixels
Display aspect ratio : 16:9
Frame rate mode : Variable
Frame rate : 24.000 FPS
Color space : YUV
Chroma subsampling : 4:2:0 (Type 0)
Bit depth : 10 bits
Bits/(Pixel*Frame) : 0.039
Stream size : 693 MiB (82%)
Default : Yes
Forced : No
Color range : Limited
Color primaries : BT.709
Transfer characteristics : BT.709
Matrix coefficients : BT.709

Audio
ID : 2
Format : E-AC-3
Format/Info : Enhanced AC-3
Commercial name : Dolby Digital Plus
Codec ID : A_EAC3
Duration : 1 h 53 min
Bit rate mode : Constant
Bit rate : 192 kb/s
Channel(s) : 6 channels
Channel layout : L R C LFE Ls Rs
Sampling rate : 48.0 kHz
Frame rate : 31.250 FPS (1536 SPF)
Bit depth : 32 bits
Compression mode : Lossy
Stream size : 156 MiB (18%)
Language : Hindi
Service kind : Complete Main
Default : Yes
Forced : No

Text
ID : 3
Format : UTF-8
Codec ID : S_TEXT/UTF8
Codec ID/Info : UTF-8 Plain Text
Duration : 1 h 43 min
Bit rate : 43 b/s
Count of elements : 915
Stream size : 32.8 KiB (0%)
Language : English
Default : Yes
Forced : No

[collapse]
Download Link(s)

Download

Direct download files get automatically deleted after a month or so. Posted on : 08/16/2021

[collapse]
Magnet Link

Magnet

Bhuj.The.Pride.of.India.2021.Hindi.UNTOUCHED.1080p.HS.WEB.DL.AC3DD5.1.ESub.1.6GB.HDWebMovies-1.6 GB

[collapse]

You may also like...

error: nah :p~