Benedetta (2021)

2h 11min | Biography, Drama, History

A 17th-century nun in Italy suffers from disturbing religious and erotic visions. She is assisted by a companion, and the relationship between the two women develops into a romantic love affair.

Watch trailer

Media information

General
Format : Matroska
Format version : Version 4
File size : 2.14 GiB
Duration : 2 h 11 min
Overall bit rate : 2 333 kb/s
Movie name : Benedetta.2021.FRENCH.1080p.10bit.BluRay.6CH.x265.HEVC

Video
ID : 1
Format : HEVC
Format/Info : High Efficiency Video Coding
Format profile : Main [email protected]@Main
Codec ID : V_MPEGH/ISO/HEVC
Duration : 2 h 11 min
Bit rate : 1 936 kb/s
Width : 1 920 pixels
Height : 1 080 pixels
Display aspect ratio : 16:9
Frame rate mode : Variable
Frame rate : 23.976 FPS
Color space : YUV
Chroma subsampling : 4:2:0 (Type 0)
Bit depth : 10 bits
Bits/(Pixel*Frame) : 0.039
Stream size : 1.78 GiB (83%)
Default : No
Forced : No
Color range : Limited
Color primaries : BT.709
Transfer characteristics : BT.709
Matrix coefficients : BT.709

Audio
ID : 2
Format : AAC LC
Codec ID : A_AAC-2
Duration : 2 h 11 min
Bit rate : 384 kb/s
Channel(s) : 6 channels
Channel layout : L R C Cb Lb Rb
Sampling rate : 48.0 kHz
Frame rate : 46.875 FPS (1024 SPF)
Compression mode : Lossy
Stream size : 361 MiB (16%)
Language : French
Default : Yes
Forced : No

Text #1
ID : 3
Format : UTF-8
Codec ID : S_TEXT/UTF8
Codec ID/Info : UTF-8 Plain Text
Duration : 2 h 6 min
Bit rate : 37 b/s
Count of elements : 1227
Stream size : 34.8 KiB (0%)
Language : English
Default : Yes
Forced : No

Text #2
ID : 4
Format : PGS
Muxing mode : zlib
Codec ID : S_HDMV/PGS
Duration : 2 h 11 min
Bit rate : 26.7 kb/s
Count of elements : 4268
Stream size : 25.1 MiB (1%)
Language : French
Default : No
Forced : No

[collapse]
Download Link(s)

Download

Direct download files get automatically deleted after a month or so. Posted on : 12/02/2021

[collapse]
Magnet Link

Magnet

Benedetta.2021.FRENCH.1080p.BluRay.REMUX.AVC.DTS-HD.MA.5.1-FGT- 34.83 GB

[collapse]

Media information

General
Format : Matroska
Format version : Version 4
File size : 1.09 GiB
Duration : 2 h 11 min
Overall bit rate : 1 194 kb/s
Movie name : Benedetta.2021.FRENCH.720p.10bit.BluRay.6CH.x265.HEVC

Video
ID : 1
Format : HEVC
Format/Info : High Efficiency Video Coding
Format profile : Main [email protected]@Main
Codec ID : V_MPEGH/ISO/HEVC
Duration : 2 h 11 min
Bit rate : 893 kb/s
Width : 1 280 pixels
Height : 720 pixels
Display aspect ratio : 16:9
Frame rate mode : Variable
Frame rate : 23.976 FPS
Color space : YUV
Chroma subsampling : 4:2:0 (Type 0)
Bit depth : 10 bits
Bits/(Pixel*Frame) : 0.040
Stream size : 839 MiB (75%)
Default : No
Forced : No
Color range : Limited
Color primaries : BT.709
Transfer characteristics : BT.709
Matrix coefficients : BT.709

Audio
ID : 2
Format : AAC LC
Codec ID : A_AAC-2
Duration : 2 h 11 min
Bit rate : 288 kb/s
Channel(s) : 6 channels
Channel layout : L R C Cb Lb Rb
Sampling rate : 48.0 kHz
Frame rate : 46.875 FPS (1024 SPF)
Compression mode : Lossy
Stream size : 270 MiB (24%)
Language : French
Default : Yes
Forced : No

Text #1
ID : 3
Format : UTF-8
Codec ID : S_TEXT/UTF8
Codec ID/Info : UTF-8 Plain Text
Duration : 2 h 6 min
Bit rate : 37 b/s
Count of elements : 1227
Stream size : 34.8 KiB (0%)
Language : English
Default : Yes
Forced : No

Text #2
ID : 4
Format : PGS
Muxing mode : zlib
Codec ID : S_HDMV/PGS
Duration : 2 h 11 min
Bit rate : 26.7 kb/s
Count of elements : 4268
Stream size : 25.1 MiB (2%)
Language : French
Default : No
Forced : No

[collapse]
Download Link(s)

Download

Direct download files get automatically deleted after a month or so. Posted on : 12/02/2021

[collapse]
Magnet Link

Magnet

Benedetta.2021.FRENCH.1080p.BluRay.REMUX.AVC.DTS-HD.MA.5.1-FGT- 34.83 GB

[collapse]

You may also like...

error: nah :p~