Barbie (2023)

PG-13 | 1h 54min | Adventure, Comedy, Fantasy

Barbie suffers a crisis that leads her to question her world and her existence.

Watch trailer

Media information

General
Format : Matroska
Format version : Version 4
File size : 3.89 GiB
Duration : 1 h 54 min
Overall bit rate : 4 879 kb/s
Frame rate : 23.976 FPS
Movie name : Barbie.2023.2160p.10bit.HDR.DV.BluRay.8CH.x265.HEVC

Video
ID : 1
Format : HEVC
Format/Info : High Efficiency Video Coding
Format profile : Main 10@L5@Main
HDR format : Dolby Vision, Version 1.0, dvhe.08.06, BL+RPU, HDR10 compatible / SMPTE ST 2086, HDR10 compatible
Codec ID : V_MPEGH/ISO/HEVC
Duration : 1 h 54 min
Bit rate : 4 592 kb/s
Width : 3 840 pixels
Height : 1 920 pixels
Display aspect ratio : 2.000
Frame rate mode : Constant
Frame rate : 23.976 (24000/1001) FPS
Color space : YUV
Chroma subsampling : 4:2:0 (Type 2)
Bit depth : 10 bits
Bits/(Pixel*Frame) : 0.026
Stream size : 3.66 GiB (94%)
Default : Yes
Forced : No
Color range : Limited
Color primaries : BT.2020
Transfer characteristics : PQ
Matrix coefficients : BT.2020 non-constant
Mastering display color primaries : Display P3
Mastering display luminance : min: 0.0001 cd/m2, max: 1000 cd/m2
Maximum Content Light Level : 446 cd/m2
Maximum Frame-Average Light Level : 115 cd/m2

Audio
ID : 2
Format : AAC LC SBR
Commercial name : HE-AAC
Format settings : Explicit
Codec ID : A_AAC-2
Duration : 1 h 54 min
Bit rate : 281 kb/s
Channel(s) : 8 channels
Channel layout : C L R Ls Rs Lw Rw LFE
Sampling rate : 48.0 kHz
Frame rate : 23.438 FPS (2048 SPF)
Compression mode : Lossy
Delay relative to video : 31 ms
Stream size : 229 MiB (6%)
Language : English
Default : Yes
Forced : No

Text #1
ID : 3
Format : UTF-8
Codec ID : S_TEXT/UTF8
Codec ID/Info : UTF-8 Plain Text
Duration : 1 h 51 min
Bit rate : 91 b/s
Frame rate : 0.338 FPS
Count of elements : 2265
Stream size : 74.6 KiB (0%)
Language : English
Default : No
Forced : No

Text #2
ID : 4
Format : UTF-8
Codec ID : S_TEXT/UTF8
Codec ID/Info : UTF-8 Plain Text
Duration : 1 h 51 min
Bit rate : 102 b/s
Frame rate : 0.379 FPS
Count of elements : 2541
Stream size : 83.9 KiB (0%)
Title : SDH
Language : English
Default : Yes
Forced : No

Text #3
ID : 5
Format : UTF-8
Codec ID : S_TEXT/UTF8
Codec ID/Info : UTF-8 Plain Text
Duration : 1 h 51 min
Bit rate : 88 b/s
Frame rate : 0.337 FPS
Count of elements : 2263
Stream size : 72.7 KiB (0%)
Title : English
Language : English
Default : No
Forced : No

Text #4
ID : 6
Format : UTF-8
Codec ID : S_TEXT/UTF8
Codec ID/Info : UTF-8 Plain Text
Duration : 1 h 52 min
Bit rate : 116 b/s
Frame rate : 0.288 FPS
Count of elements : 1946
Stream size : 95.9 KiB (0%)
Title : Arabic
Language : Arabic
Default : No
Forced : No

Text #5
ID : 7
Format : UTF-8
Codec ID : S_TEXT/UTF8
Codec ID/Info : UTF-8 Plain Text
Duration : 1 h 52 min
Bit rate : 109 b/s
Frame rate : 0.288 FPS
Count of elements : 1949
Stream size : 90.4 KiB (0%)
Title : Bulgarian
Language : Bulgarian
Default : No
Forced : No

Text #6
ID : 8
Format : UTF-8
Codec ID : S_TEXT/UTF8
Codec ID/Info : UTF-8 Plain Text
Duration : 1 h 52 min
Bit rate : 66 b/s
Frame rate : 0.288 FPS
Count of elements : 1949
Stream size : 54.7 KiB (0%)
Title : Chinese (Cantonese)
Language : Cantonese
Default : No
Forced : No

Text #7
ID : 9
Format : UTF-8
Codec ID : S_TEXT/UTF8
Codec ID/Info : UTF-8 Plain Text
Duration : 1 h 53 min
Bit rate : 69 b/s
Frame rate : 0.354 FPS
Count of elements : 2416
Stream size : 57.5 KiB (0%)
Title : Chinese (Simplified)
Language : Chinese (Simplified)
Default : No
Forced : No

Text #8
ID : 10
Format : UTF-8
Codec ID : S_TEXT/UTF8
Codec ID/Info : UTF-8 Plain Text
Duration : 1 h 52 min
Bit rate : 58 b/s
Frame rate : 0.285 FPS
Count of elements : 1929
Stream size : 48.5 KiB (0%)
Title : Chinese (Traditional)
Language : Chinese (Traditional)
Default : No
Forced : No

Text #9
ID : 11
Format : UTF-8
Codec ID : S_TEXT/UTF8
Codec ID/Info : UTF-8 Plain Text
Duration : 1 h 52 min
Bit rate : 71 b/s
Frame rate : 0.283 FPS
Count of elements : 1916
Stream size : 59.2 KiB (0%)
Title : Czech
Language : Czech
Default : No
Forced : No

Text #10
ID : 12
Format : UTF-8
Codec ID : S_TEXT/UTF8
Codec ID/Info : UTF-8 Plain Text
Duration : 1 h 52 min
Bit rate : 59 b/s
Frame rate : 0.192 FPS
Count of elements : 1296
Stream size : 49.3 KiB (0%)
Title : Dutch
Language : Dutch
Default : No
Forced : No

Text #11
ID : 13
Format : UTF-8
Codec ID : S_TEXT/UTF8
Codec ID/Info : UTF-8 Plain Text
Duration : 1 h 52 min
Bit rate : 67 b/s
Frame rate : 0.284 FPS
Count of elements : 1919
Stream size : 56.1 KiB (0%)
Title : Estonian
Language : Estonian
Default : No
Forced : No

Text #12
ID : 14
Format : UTF-8
Codec ID : S_TEXT/UTF8
Codec ID/Info : UTF-8 Plain Text
Duration : 1 h 53 min
Bit rate : 81 b/s
Frame rate : 0.241 FPS
Count of elements : 1643
Stream size : 67.5 KiB (0%)
Title : German (SDH)
Language : German
Default : No
Forced : No

Text #13
ID : 15
Format : UTF-8
Codec ID : S_TEXT/UTF8
Codec ID/Info : UTF-8 Plain Text
Duration : 1 h 52 min
Bit rate : 120 b/s
Frame rate : 0.287 FPS
Count of elements : 1939
Stream size : 99.2 KiB (0%)
Title : Greek
Language : Greek
Default : No
Forced : No

Text #14
ID : 16
Format : UTF-8
Codec ID : S_TEXT/UTF8
Codec ID/Info : UTF-8 Plain Text
Duration : 1 h 52 min
Bit rate : 110 b/s
Frame rate : 0.288 FPS
Count of elements : 1946
Stream size : 91.7 KiB (0%)
Title : Hebrew
Language : Hebrew
Default : No
Forced : No

Text #15
ID : 17
Format : UTF-8
Codec ID : S_TEXT/UTF8
Codec ID/Info : UTF-8 Plain Text
Duration : 1 h 52 min
Bit rate : 75 b/s
Frame rate : 0.285 FPS
Count of elements : 1930
Stream size : 62.6 KiB (0%)
Title : Hungarian
Language : Hungarian
Default : No
Forced : No

Text #16
ID : 18
Format : UTF-8
Codec ID : S_TEXT/UTF8
Codec ID/Info : UTF-8 Plain Text
Duration : 1 h 52 min
Bit rate : 67 b/s
Frame rate : 0.286 FPS
Count of elements : 1935
Stream size : 55.6 KiB (0%)
Title : Korean
Language : Korean
Default : No
Forced : No

Text #17
ID : 19
Format : UTF-8
Codec ID : S_TEXT/UTF8
Codec ID/Info : UTF-8 Plain Text
Duration : 1 h 52 min
Bit rate : 70 b/s
Frame rate : 0.280 FPS
Count of elements : 1895
Stream size : 57.9 KiB (0%)
Title : Latvian
Language : Latvian
Default : No
Forced : No

Text #18
ID : 20
Format : UTF-8
Codec ID : S_TEXT/UTF8
Codec ID/Info : UTF-8 Plain Text
Duration : 1 h 52 min
Bit rate : 75 b/s
Frame rate : 0.286 FPS
Count of elements : 1936
Stream size : 62.3 KiB (0%)
Title : Lithuanian
Language : Lithuanian
Default : No
Forced : No

Text #19
ID : 21
Format : UTF-8
Codec ID : S_TEXT/UTF8
Codec ID/Info : UTF-8 Plain Text
Duration : 1 h 52 min
Bit rate : 65 b/s
Frame rate : 0.277 FPS
Count of elements : 1875
Stream size : 53.8 KiB (0%)
Title : Polish
Language : Polish
Default : No
Forced : No

Text #20
ID : 22
Format : UTF-8
Codec ID : S_TEXT/UTF8
Codec ID/Info : UTF-8 Plain Text
Duration : 1 h 52 min
Bit rate : 73 b/s
Frame rate : 0.286 FPS
Count of elements : 1938
Stream size : 60.7 KiB (0%)
Title : Portuguese (Brazilian)
Language : Portuguese (BR)
Default : No
Forced : No

Text #21
ID : 23
Format : UTF-8
Codec ID : S_TEXT/UTF8
Codec ID/Info : UTF-8 Plain Text
Duration : 1 h 52 min
Bit rate : 82 b/s
Frame rate : 0.291 FPS
Count of elements : 1968
Stream size : 67.9 KiB (0%)
Title : Portuguese (Iberian)
Language : Portuguese (PT)
Default : No
Forced : No

Text #22
ID : 24
Format : UTF-8
Codec ID : S_TEXT/UTF8
Codec ID/Info : UTF-8 Plain Text
Duration : 1 h 52 min
Bit rate : 110 b/s
Frame rate : 0.288 FPS
Count of elements : 1947
Stream size : 91.3 KiB (0%)
Title : Russian
Language : Russian
Default : No
Forced : No

Text #23
ID : 25
Format : UTF-8
Codec ID : S_TEXT/UTF8
Codec ID/Info : UTF-8 Plain Text
Duration : 1 h 52 min
Bit rate : 64 b/s
Frame rate : 0.235 FPS
Count of elements : 1590
Stream size : 53.4 KiB (0%)
Title : Slovenian
Language : Slovenian
Default : No
Forced : No

Text #24
ID : 26
Format : UTF-8
Codec ID : S_TEXT/UTF8
Codec ID/Info : UTF-8 Plain Text
Duration : 1 h 52 min
Bit rate : 163 b/s
Frame rate : 0.288 FPS
Count of elements : 1951
Stream size : 135 KiB (0%)
Title : Thai
Language : Thai
Default : No
Forced : No

Text #25
ID : 27
Format : UTF-8
Codec ID : S_TEXT/UTF8
Codec ID/Info : UTF-8 Plain Text
Duration : 1 h 52 min
Bit rate : 78 b/s
Frame rate : 0.283 FPS
Count of elements : 1913
Stream size : 65.0 KiB (0%)
Title : Turkish
Language : Turkish
Default : No
Forced : No

[collapse]
Download Link(s)

Download

Direct download files get automatically deleted after a month or so. Posted on : 10/17/2023

[collapse]
Magnet Link

Magnet

Barbie.2023.2160p.10bit.HDR.DV.BluRay.8CH.x265.HEVC-PSA-3.9 GB

[collapse]

Media information

General
Format : Matroska
Format version : Version 4
File size : 2.41 GiB
Duration : 1 h 54 min
Overall bit rate : 3 028 kb/s
Frame rate : 23.976 FPS
Movie name : Barbie.2023.1080p.10bit.BluRay.8CH.x265.HEVC

Video
ID : 1
Format : HEVC
Format/Info : High Efficiency Video Coding
Format profile : Main 10@L4@Main
Codec ID : V_MPEGH/ISO/HEVC
Duration : 1 h 54 min
Bit rate : 2 741 kb/s
Width : 1 920 pixels
Height : 960 pixels
Display aspect ratio : 2.000
Frame rate mode : Constant
Frame rate : 23.976 (24000/1001) FPS
Color space : YUV
Chroma subsampling : 4:2:0
Bit depth : 10 bits
Bits/(Pixel*Frame) : 0.062
Stream size : 2.18 GiB (91%)
Default : Yes
Forced : No

Audio
ID : 2
Format : AAC LC SBR
Commercial name : HE-AAC
Format settings : Explicit
Codec ID : A_AAC-2
Duration : 1 h 54 min
Bit rate : 281 kb/s
Channel(s) : 8 channels
Channel layout : C L R Ls Rs Lw Rw LFE
Sampling rate : 48.0 kHz
Frame rate : 23.438 FPS (2048 SPF)
Compression mode : Lossy
Delay relative to video : 31 ms
Stream size : 229 MiB (9%)
Language : English
Default : Yes
Forced : No

Text #1
ID : 3
Format : UTF-8
Codec ID : S_TEXT/UTF8
Codec ID/Info : UTF-8 Plain Text
Duration : 1 h 51 min
Bit rate : 91 b/s
Frame rate : 0.338 FPS
Count of elements : 2265
Stream size : 74.6 KiB (0%)
Language : English
Default : No
Forced : No

Text #2
ID : 4
Format : UTF-8
Codec ID : S_TEXT/UTF8
Codec ID/Info : UTF-8 Plain Text
Duration : 1 h 51 min
Bit rate : 102 b/s
Frame rate : 0.379 FPS
Count of elements : 2541
Stream size : 83.9 KiB (0%)
Title : SDH
Language : English
Default : Yes
Forced : No

Text #3
ID : 5
Format : UTF-8
Codec ID : S_TEXT/UTF8
Codec ID/Info : UTF-8 Plain Text
Duration : 1 h 52 min
Bit rate : 109 b/s
Frame rate : 0.287 FPS
Count of elements : 1943
Stream size : 90.8 KiB (0%)
Language : Bulgarian
Default : No
Forced : No

Text #4
ID : 6
Format : UTF-8
Codec ID : S_TEXT/UTF8
Codec ID/Info : UTF-8 Plain Text
Duration : 1 h 52 min
Bit rate : 63 b/s
Frame rate : 0.287 FPS
Count of elements : 1945
Stream size : 52.7 KiB (0%)
Title : Cantonese
Language : Chinese
Default : No
Forced : No

Text #5
ID : 7
Format : UTF-8
Codec ID : S_TEXT/UTF8
Codec ID/Info : UTF-8 Plain Text
Duration : 1 h 53 min
Bit rate : 69 b/s
Frame rate : 0.352 FPS
Count of elements : 2398
Stream size : 57.8 KiB (0%)
Title : Simplified
Language : Chinese
Default : No
Forced : No

Text #6
ID : 8
Format : UTF-8
Codec ID : S_TEXT/UTF8
Codec ID/Info : UTF-8 Plain Text
Duration : 1 h 52 min
Bit rate : 56 b/s
Frame rate : 0.284 FPS
Count of elements : 1924
Stream size : 46.7 KiB (0%)
Title : Traditional
Language : Chinese
Default : No
Forced : No

Text #7
ID : 9
Format : UTF-8
Codec ID : S_TEXT/UTF8
Codec ID/Info : UTF-8 Plain Text
Duration : 1 h 52 min
Bit rate : 72 b/s
Frame rate : 0.283 FPS
Count of elements : 1914
Stream size : 60.0 KiB (0%)
Language : Czech
Default : No
Forced : No

Text #8
ID : 10
Format : UTF-8
Codec ID : S_TEXT/UTF8
Codec ID/Info : UTF-8 Plain Text
Duration : 1 h 52 min
Bit rate : 61 b/s
Frame rate : 0.184 FPS
Count of elements : 1242
Stream size : 51.1 KiB (0%)
Language : Danish
Default : No
Forced : No

Text #9
ID : 11
Format : UTF-8
Codec ID : S_TEXT/UTF8
Codec ID/Info : UTF-8 Plain Text
Duration : 1 h 52 min
Bit rate : 60 b/s
Frame rate : 0.191 FPS
Count of elements : 1295
Stream size : 49.9 KiB (0%)
Language : Dutch
Default : No
Forced : No

Text #10
ID : 12
Format : UTF-8
Codec ID : S_TEXT/UTF8
Codec ID/Info : UTF-8 Plain Text
Duration : 1 h 52 min
Bit rate : 68 b/s
Frame rate : 0.283 FPS
Count of elements : 1912
Stream size : 56.4 KiB (0%)
Language : Estonian
Default : No
Forced : No

Text #11
ID : 13
Format : UTF-8
Codec ID : S_TEXT/UTF8
Codec ID/Info : UTF-8 Plain Text
Duration : 1 h 52 min
Bit rate : 70 b/s
Frame rate : 0.283 FPS
Count of elements : 1914
Stream size : 57.9 KiB (0%)
Language : Finnish
Default : No
Forced : No

Text #12
ID : 14
Format : UTF-8
Codec ID : S_TEXT/UTF8
Codec ID/Info : UTF-8 Plain Text
Duration : 1 h 52 min
Bit rate : 74 b/s
Frame rate : 0.224 FPS
Count of elements : 1509
Stream size : 61.7 KiB (0%)
Language : German
Default : No
Forced : No

Text #13
ID : 15
Format : UTF-8
Codec ID : S_TEXT/UTF8
Codec ID/Info : UTF-8 Plain Text
Duration : 1 h 52 min
Bit rate : 120 b/s
Frame rate : 0.286 FPS
Count of elements : 1937
Stream size : 99.6 KiB (0%)
Language : Greek
Default : No
Forced : No

Text #14
ID : 16
Format : UTF-8
Codec ID : S_TEXT/UTF8
Codec ID/Info : UTF-8 Plain Text
Duration : 1 h 52 min
Bit rate : 111 b/s
Frame rate : 0.287 FPS
Count of elements : 1941
Stream size : 91.9 KiB (0%)
Language : Hebrew
Default : No
Forced : No

Text #15
ID : 17
Format : UTF-8
Codec ID : S_TEXT/UTF8
Codec ID/Info : UTF-8 Plain Text
Duration : 1 h 52 min
Bit rate : 76 b/s
Frame rate : 0.285 FPS
Count of elements : 1926
Stream size : 62.9 KiB (0%)
Language : Hungarian
Default : No
Forced : No

Text #16
ID : 18
Format : UTF-8
Codec ID : S_TEXT/UTF8
Codec ID/Info : UTF-8 Plain Text
Duration : 1 h 47 min
Bit rate : 80 b/s
Frame rate : 0.321 FPS
Count of elements : 2081
Stream size : 64.0 KiB (0%)
Language : Italian
Default : No
Forced : No

Text #17
ID : 19
Format : UTF-8
Codec ID : S_TEXT/UTF8
Codec ID/Info : UTF-8 Plain Text
Duration : 1 h 52 min
Bit rate : 67 b/s
Frame rate : 0.285 FPS
Count of elements : 1930
Stream size : 55.9 KiB (0%)
Language : Korean
Default : No
Forced : No

Text #18
ID : 20
Format : UTF-8
Codec ID : S_TEXT/UTF8
Codec ID/Info : UTF-8 Plain Text
Duration : 1 h 52 min
Bit rate : 70 b/s
Frame rate : 0.280 FPS
Count of elements : 1891
Stream size : 58.3 KiB (0%)
Language : Latvian
Default : No
Forced : No

Text #19
ID : 21
Format : UTF-8
Codec ID : S_TEXT/UTF8
Codec ID/Info : UTF-8 Plain Text
Duration : 1 h 52 min
Bit rate : 75 b/s
Frame rate : 0.286 FPS
Count of elements : 1933
Stream size : 62.7 KiB (0%)
Language : Lithuanian
Default : No
Forced : No

Text #20
ID : 22
Format : UTF-8
Codec ID : S_TEXT/UTF8
Codec ID/Info : UTF-8 Plain Text
Duration : 1 h 52 min
Bit rate : 66 b/s
Frame rate : 0.219 FPS
Count of elements : 1482
Stream size : 54.8 KiB (0%)
Language : Norwegian
Default : No
Forced : No

Text #21
ID : 23
Format : UTF-8
Codec ID : S_TEXT/UTF8
Codec ID/Info : UTF-8 Plain Text
Duration : 1 h 52 min
Bit rate : 65 b/s
Frame rate : 0.276 FPS
Count of elements : 1870
Stream size : 54.1 KiB (0%)
Language : Polish
Default : No
Forced : No

Text #22
ID : 24
Format : UTF-8
Codec ID : S_TEXT/UTF8
Codec ID/Info : UTF-8 Plain Text
Duration : 1 h 52 min
Bit rate : 82 b/s
Frame rate : 0.291 FPS
Count of elements : 1966
Stream size : 68.3 KiB (0%)
Language : Portuguese
Default : No
Forced : No

Text #23
ID : 25
Format : UTF-8
Codec ID : S_TEXT/UTF8
Codec ID/Info : UTF-8 Plain Text
Duration : 1 h 52 min
Bit rate : 74 b/s
Frame rate : 0.286 FPS
Count of elements : 1935
Stream size : 61.5 KiB (0%)
Title : Brazilian
Language : Portuguese
Default : No
Forced : No

Text #24
ID : 26
Format : UTF-8
Codec ID : S_TEXT/UTF8
Codec ID/Info : UTF-8 Plain Text
Duration : 1 h 52 min
Bit rate : 111 b/s
Frame rate : 0.287 FPS
Count of elements : 1944
Stream size : 91.7 KiB (0%)
Language : Russian
Default : No
Forced : No

Text #25
ID : 27
Format : UTF-8
Codec ID : S_TEXT/UTF8
Codec ID/Info : UTF-8 Plain Text
Duration : 1 h 52 min
Bit rate : 65 b/s
Frame rate : 0.234 FPS
Count of elements : 1586
Stream size : 54.0 KiB (0%)
Language : Slovenian
Default : No
Forced : No

Text #26
ID : 28
Format : UTF-8
Codec ID : S_TEXT/UTF8
Codec ID/Info : UTF-8 Plain Text
Duration : 1 h 52 min
Bit rate : 71 b/s
Frame rate : 0.277 FPS
Count of elements : 1877
Stream size : 59.4 KiB (0%)
Title : Castilian
Language : Spanish
Default : No
Forced : No

Text #27
ID : 29
Format : UTF-8
Codec ID : S_TEXT/UTF8
Codec ID/Info : UTF-8 Plain Text
Duration : 1 h 52 min
Bit rate : 67 b/s
Frame rate : 0.210 FPS
Count of elements : 1420
Stream size : 55.9 KiB (0%)
Language : Swedish
Default : No
Forced : No

Text #28
ID : 30
Format : UTF-8
Codec ID : S_TEXT/UTF8
Codec ID/Info : UTF-8 Plain Text
Duration : 1 h 52 min
Bit rate : 165 b/s
Frame rate : 0.288 FPS
Count of elements : 1948
Stream size : 136 KiB (0%)
Language : Thai
Default : No
Forced : No

Text #29
ID : 31
Format : UTF-8
Codec ID : S_TEXT/UTF8
Codec ID/Info : UTF-8 Plain Text
Duration : 1 h 52 min
Bit rate : 79 b/s
Frame rate : 0.282 FPS
Count of elements : 1909
Stream size : 65.7 KiB (0%)
Language : Turkish
Default : No
Forced : No

[collapse]
Download Link(s)

Download

Direct download files get automatically deleted after a month or so. Posted on : 10/17/2023

[collapse]
Magnet Link

Magnet

Barbie.2023.1080p.10bit.BluRay.8CH.x265.HEVC-PSA-2.4 GB

[collapse]

Media information

General
Format : Matroska
Format version : Version 4
File size : 1.18 GiB
Duration : 1 h 54 min
Overall bit rate : 1 480 kb/s
Frame rate : 23.976 FPS
Movie name : Barbie.2023.720p.10bit.BluRay.6CH.x265.HEVC

Video
ID : 1
Format : HEVC
Format/Info : High Efficiency Video Coding
Format profile : Main [email protected]@Main
Codec ID : V_MPEGH/ISO/HEVC
Duration : 1 h 54 min
Bit rate : 1 253 kb/s
Width : 1 280 pixels
Height : 640 pixels
Display aspect ratio : 2.000
Frame rate mode : Constant
Frame rate : 23.976 (24000/1001) FPS
Color space : YUV
Chroma subsampling : 4:2:0
Bit depth : 10 bits
Bits/(Pixel*Frame) : 0.064
Stream size : 1 022 MiB (85%)
Default : Yes
Forced : No

Audio
ID : 2
Format : AAC LC SBR
Commercial name : HE-AAC
Format settings : Explicit
Codec ID : A_AAC-2
Duration : 1 h 54 min
Bit rate : 220 kb/s
Channel(s) : 6 channels
Channel layout : C L R Ls Rs LFE
Sampling rate : 48.0 kHz
Frame rate : 23.438 FPS (2048 SPF)
Compression mode : Lossy
Delay relative to video : 31 ms
Stream size : 180 MiB (15%)
Language : English
Default : Yes
Forced : No

Text #1
ID : 3
Format : UTF-8
Codec ID : S_TEXT/UTF8
Codec ID/Info : UTF-8 Plain Text
Duration : 1 h 51 min
Bit rate : 91 b/s
Frame rate : 0.338 FPS
Count of elements : 2265
Stream size : 74.6 KiB (0%)
Language : English
Default : No
Forced : No

Text #2
ID : 4
Format : UTF-8
Codec ID : S_TEXT/UTF8
Codec ID/Info : UTF-8 Plain Text
Duration : 1 h 51 min
Bit rate : 102 b/s
Frame rate : 0.379 FPS
Count of elements : 2541
Stream size : 83.9 KiB (0%)
Title : SDH
Language : English
Default : Yes
Forced : No

Text #3
ID : 5
Format : UTF-8
Codec ID : S_TEXT/UTF8
Codec ID/Info : UTF-8 Plain Text
Duration : 1 h 52 min
Bit rate : 109 b/s
Frame rate : 0.287 FPS
Count of elements : 1943
Stream size : 90.8 KiB (0%)
Language : Bulgarian
Default : No
Forced : No

Text #4
ID : 6
Format : UTF-8
Codec ID : S_TEXT/UTF8
Codec ID/Info : UTF-8 Plain Text
Duration : 1 h 52 min
Bit rate : 63 b/s
Frame rate : 0.287 FPS
Count of elements : 1945
Stream size : 52.7 KiB (0%)
Title : Cantonese
Language : Chinese
Default : No
Forced : No

Text #5
ID : 7
Format : UTF-8
Codec ID : S_TEXT/UTF8
Codec ID/Info : UTF-8 Plain Text
Duration : 1 h 53 min
Bit rate : 69 b/s
Frame rate : 0.352 FPS
Count of elements : 2398
Stream size : 57.8 KiB (0%)
Title : Simplified
Language : Chinese
Default : No
Forced : No

Text #6
ID : 8
Format : UTF-8
Codec ID : S_TEXT/UTF8
Codec ID/Info : UTF-8 Plain Text
Duration : 1 h 52 min
Bit rate : 56 b/s
Frame rate : 0.284 FPS
Count of elements : 1924
Stream size : 46.7 KiB (0%)
Title : Traditional
Language : Chinese
Default : No
Forced : No

Text #7
ID : 9
Format : UTF-8
Codec ID : S_TEXT/UTF8
Codec ID/Info : UTF-8 Plain Text
Duration : 1 h 52 min
Bit rate : 72 b/s
Frame rate : 0.283 FPS
Count of elements : 1914
Stream size : 60.0 KiB (0%)
Language : Czech
Default : No
Forced : No

Text #8
ID : 10
Format : UTF-8
Codec ID : S_TEXT/UTF8
Codec ID/Info : UTF-8 Plain Text
Duration : 1 h 52 min
Bit rate : 61 b/s
Frame rate : 0.184 FPS
Count of elements : 1242
Stream size : 51.1 KiB (0%)
Language : Danish
Default : No
Forced : No

Text #9
ID : 11
Format : UTF-8
Codec ID : S_TEXT/UTF8
Codec ID/Info : UTF-8 Plain Text
Duration : 1 h 52 min
Bit rate : 60 b/s
Frame rate : 0.191 FPS
Count of elements : 1295
Stream size : 49.9 KiB (0%)
Language : Dutch
Default : No
Forced : No

Text #10
ID : 12
Format : UTF-8
Codec ID : S_TEXT/UTF8
Codec ID/Info : UTF-8 Plain Text
Duration : 1 h 52 min
Bit rate : 68 b/s
Frame rate : 0.283 FPS
Count of elements : 1912
Stream size : 56.4 KiB (0%)
Language : Estonian
Default : No
Forced : No

Text #11
ID : 13
Format : UTF-8
Codec ID : S_TEXT/UTF8
Codec ID/Info : UTF-8 Plain Text
Duration : 1 h 52 min
Bit rate : 70 b/s
Frame rate : 0.283 FPS
Count of elements : 1914
Stream size : 57.9 KiB (0%)
Language : Finnish
Default : No
Forced : No

Text #12
ID : 14
Format : UTF-8
Codec ID : S_TEXT/UTF8
Codec ID/Info : UTF-8 Plain Text
Duration : 1 h 52 min
Bit rate : 74 b/s
Frame rate : 0.224 FPS
Count of elements : 1509
Stream size : 61.7 KiB (0%)
Language : German
Default : No
Forced : No

Text #13
ID : 15
Format : UTF-8
Codec ID : S_TEXT/UTF8
Codec ID/Info : UTF-8 Plain Text
Duration : 1 h 52 min
Bit rate : 120 b/s
Frame rate : 0.286 FPS
Count of elements : 1937
Stream size : 99.6 KiB (0%)
Language : Greek
Default : No
Forced : No

Text #14
ID : 16
Format : UTF-8
Codec ID : S_TEXT/UTF8
Codec ID/Info : UTF-8 Plain Text
Duration : 1 h 52 min
Bit rate : 111 b/s
Frame rate : 0.287 FPS
Count of elements : 1941
Stream size : 91.9 KiB (0%)
Language : Hebrew
Default : No
Forced : No

Text #15
ID : 17
Format : UTF-8
Codec ID : S_TEXT/UTF8
Codec ID/Info : UTF-8 Plain Text
Duration : 1 h 52 min
Bit rate : 76 b/s
Frame rate : 0.285 FPS
Count of elements : 1926
Stream size : 62.9 KiB (0%)
Language : Hungarian
Default : No
Forced : No

Text #16
ID : 18
Format : UTF-8
Codec ID : S_TEXT/UTF8
Codec ID/Info : UTF-8 Plain Text
Duration : 1 h 47 min
Bit rate : 80 b/s
Frame rate : 0.321 FPS
Count of elements : 2081
Stream size : 64.0 KiB (0%)
Language : Italian
Default : No
Forced : No

Text #17
ID : 19
Format : UTF-8
Codec ID : S_TEXT/UTF8
Codec ID/Info : UTF-8 Plain Text
Duration : 1 h 52 min
Bit rate : 67 b/s
Frame rate : 0.285 FPS
Count of elements : 1930
Stream size : 55.9 KiB (0%)
Language : Korean
Default : No
Forced : No

Text #18
ID : 20
Format : UTF-8
Codec ID : S_TEXT/UTF8
Codec ID/Info : UTF-8 Plain Text
Duration : 1 h 52 min
Bit rate : 70 b/s
Frame rate : 0.280 FPS
Count of elements : 1891
Stream size : 58.3 KiB (0%)
Language : Latvian
Default : No
Forced : No

Text #19
ID : 21
Format : UTF-8
Codec ID : S_TEXT/UTF8
Codec ID/Info : UTF-8 Plain Text
Duration : 1 h 52 min
Bit rate : 75 b/s
Frame rate : 0.286 FPS
Count of elements : 1933
Stream size : 62.7 KiB (0%)
Language : Lithuanian
Default : No
Forced : No

Text #20
ID : 22
Format : UTF-8
Codec ID : S_TEXT/UTF8
Codec ID/Info : UTF-8 Plain Text
Duration : 1 h 52 min
Bit rate : 66 b/s
Frame rate : 0.219 FPS
Count of elements : 1482
Stream size : 54.8 KiB (0%)
Language : Norwegian
Default : No
Forced : No

Text #21
ID : 23
Format : UTF-8
Codec ID : S_TEXT/UTF8
Codec ID/Info : UTF-8 Plain Text
Duration : 1 h 52 min
Bit rate : 65 b/s
Frame rate : 0.276 FPS
Count of elements : 1870
Stream size : 54.1 KiB (0%)
Language : Polish
Default : No
Forced : No

Text #22
ID : 24
Format : UTF-8
Codec ID : S_TEXT/UTF8
Codec ID/Info : UTF-8 Plain Text
Duration : 1 h 52 min
Bit rate : 82 b/s
Frame rate : 0.291 FPS
Count of elements : 1966
Stream size : 68.3 KiB (0%)
Language : Portuguese
Default : No
Forced : No

Text #23
ID : 25
Format : UTF-8
Codec ID : S_TEXT/UTF8
Codec ID/Info : UTF-8 Plain Text
Duration : 1 h 52 min
Bit rate : 74 b/s
Frame rate : 0.286 FPS
Count of elements : 1935
Stream size : 61.5 KiB (0%)
Title : Brazilian
Language : Portuguese
Default : No
Forced : No

Text #24
ID : 26
Format : UTF-8
Codec ID : S_TEXT/UTF8
Codec ID/Info : UTF-8 Plain Text
Duration : 1 h 52 min
Bit rate : 111 b/s
Frame rate : 0.287 FPS
Count of elements : 1944
Stream size : 91.7 KiB (0%)
Language : Russian
Default : No
Forced : No

Text #25
ID : 27
Format : UTF-8
Codec ID : S_TEXT/UTF8
Codec ID/Info : UTF-8 Plain Text
Duration : 1 h 52 min
Bit rate : 65 b/s
Frame rate : 0.234 FPS
Count of elements : 1586
Stream size : 54.0 KiB (0%)
Language : Slovenian
Default : No
Forced : No

Text #26
ID : 28
Format : UTF-8
Codec ID : S_TEXT/UTF8
Codec ID/Info : UTF-8 Plain Text
Duration : 1 h 52 min
Bit rate : 71 b/s
Frame rate : 0.277 FPS
Count of elements : 1877
Stream size : 59.4 KiB (0%)
Title : Castilian
Language : Spanish
Default : No
Forced : No

Text #27
ID : 29
Format : UTF-8
Codec ID : S_TEXT/UTF8
Codec ID/Info : UTF-8 Plain Text
Duration : 1 h 52 min
Bit rate : 67 b/s
Frame rate : 0.210 FPS
Count of elements : 1420
Stream size : 55.9 KiB (0%)
Language : Swedish
Default : No
Forced : No

Text #28
ID : 30
Format : UTF-8
Codec ID : S_TEXT/UTF8
Codec ID/Info : UTF-8 Plain Text
Duration : 1 h 52 min
Bit rate : 165 b/s
Frame rate : 0.288 FPS
Count of elements : 1948
Stream size : 136 KiB (0%)
Language : Thai
Default : No
Forced : No

Text #29
ID : 31
Format : UTF-8
Codec ID : S_TEXT/UTF8
Codec ID/Info : UTF-8 Plain Text
Duration : 1 h 52 min
Bit rate : 79 b/s
Frame rate : 0.282 FPS
Count of elements : 1909
Stream size : 65.7 KiB (0%)
Language : Turkish
Default : No
Forced : No

[collapse]
Download Link(s)

Download

Direct download files get automatically deleted after a month or so. Posted on : 10/17/2023

[collapse]
Magnet Link

Magnet

Barbie.2023.720p.10bit.BluRay.6CH.x265.HEVC-PSA-1.2 GB

[collapse]

Media information

General
Format : Matroska
Format version : Version 4
File size : 1.87 GiB
Duration : 1 h 55 min
Overall bit rate : 2 327 kb/s
Frame rate : 23.976 FPS
Movie name : Barbie.2023.1080p.10bit.WEBRip.6CH.x265.HEVC

Video
ID : 1
Format : HEVC
Format/Info : High Efficiency Video Coding
Format profile : Main 10@L4@Main
Codec ID : V_MPEGH/ISO/HEVC
Duration : 1 h 55 min
Bit rate : 2 115 kb/s
Width : 1 920 pixels
Height : 960 pixels
Display aspect ratio : 2.000
Frame rate mode : Constant
Frame rate : 23.976 (24000/1001) FPS
Color space : YUV
Chroma subsampling : 4:2:0
Bit depth : 10 bits
Bits/(Pixel*Frame) : 0.048
Stream size : 1.70 GiB (91%)
Default : Yes
Forced : No
Color range : Limited
Color primaries : BT.709
Transfer characteristics : BT.709
Matrix coefficients : BT.709

Audio
ID : 2
Format : AAC LC SBR
Commercial name : HE-AAC
Format settings : Explicit
Codec ID : A_AAC-2
Duration : 1 h 54 min
Bit rate : 207 kb/s
Channel(s) : 6 channels
Channel layout : C L R Ls Rs LFE
Sampling rate : 48.0 kHz
Frame rate : 23.438 FPS (2048 SPF)
Compression mode : Lossy
Delay relative to video : 23 ms
Stream size : 169 MiB (9%)
Language : English
Default : Yes
Forced : No

Text #1
ID : 3
Format : UTF-8
Codec ID : S_TEXT/UTF8
Codec ID/Info : UTF-8 Plain Text
Duration : 1 h 51 min
Bit rate : 104 b/s
Frame rate : 0.379 FPS
Count of elements : 2541
Stream size : 85.7 KiB (0%)
Title : English (CC)
Language : English
Default : Yes
Forced : No

Text #2
ID : 4
Format : UTF-8
Codec ID : S_TEXT/UTF8
Codec ID/Info : UTF-8 Plain Text
Duration : 1 h 52 min
Bit rate : 107 b/s
Frame rate : 0.288 FPS
Count of elements : 1949
Stream size : 88.7 KiB (0%)
Title : български
Language : Bulgarian
Default : No
Forced : No

Text #3
ID : 5
Format : UTF-8
Codec ID : S_TEXT/UTF8
Codec ID/Info : UTF-8 Plain Text
Duration : 1 h 52 min
Bit rate : 69 b/s
Frame rate : 0.283 FPS
Count of elements : 1916
Stream size : 57.5 KiB (0%)
Title : Čeština
Language : Czech
Default : No
Forced : No

Text #4
ID : 6
Format : UTF-8
Codec ID : S_TEXT/UTF8
Codec ID/Info : UTF-8 Plain Text
Duration : 1 h 52 min
Bit rate : 60 b/s
Frame rate : 0.184 FPS
Count of elements : 1242
Stream size : 49.8 KiB (0%)
Title : dansk
Language : Danish
Default : No
Forced : No

Text #5
ID : 7
Format : UTF-8
Codec ID : S_TEXT/UTF8
Codec ID/Info : UTF-8 Plain Text
Duration : 1 h 52 min
Bit rate : 117 b/s
Frame rate : 0.287 FPS
Count of elements : 1939
Stream size : 97.4 KiB (0%)
Title : Ελληνικά
Language : Greek
Default : No
Forced : No

Text #6
ID : 8
Format : UTF-8
Codec ID : S_TEXT/UTF8
Codec ID/Info : UTF-8 Plain Text
Duration : 1 h 52 min
Bit rate : 69 b/s
Frame rate : 0.278 FPS
Count of elements : 1882
Stream size : 57.0 KiB (0%)
Title : Español (España)
Language : Spanish
Default : No
Forced : No

Text #7
ID : 9
Format : UTF-8
Codec ID : S_TEXT/UTF8
Codec ID/Info : UTF-8 Plain Text
Duration : 1 h 52 min
Bit rate : 72 b/s
Frame rate : 0.285 FPS
Count of elements : 1931
Stream size : 60.3 KiB (0%)
Title : Español (Latinoamérica)
Language : Spanish
Default : No
Forced : No

Text #8
ID : 10
Format : UTF-8
Codec ID : S_TEXT/UTF8
Codec ID/Info : UTF-8 Plain Text
Duration : 1 h 52 min
Bit rate : 65 b/s
Frame rate : 0.284 FPS
Count of elements : 1919
Stream size : 54.2 KiB (0%)
Title : eesti
Language : Estonian
Default : No
Forced : No

Text #9
ID : 11
Format : UTF-8
Codec ID : S_TEXT/UTF8
Codec ID/Info : UTF-8 Plain Text
Duration : 1 h 52 min
Bit rate : 67 b/s
Frame rate : 0.284 FPS
Count of elements : 1919
Stream size : 55.6 KiB (0%)
Title : Suomi
Language : Finnish
Default : No
Forced : No

Text #10
ID : 12
Format : UTF-8
Codec ID : S_TEXT/UTF8
Codec ID/Info : UTF-8 Plain Text
Duration : 1 h 52 min
Bit rate : 58 b/s
Frame rate : 0.265 FPS
Count of elements : 1791
Stream size : 47.9 KiB (0%)
Title : Français (France)
Language : French
Default : No
Forced : No

Text #11
ID : 13
Format : UTF-8
Codec ID : S_TEXT/UTF8
Codec ID/Info : UTF-8 Plain Text
Duration : 1 h 52 min
Bit rate : 110 b/s
Frame rate : 0.288 FPS
Count of elements : 1946
Stream size : 91.7 KiB (0%)
Title : עברית
Language : Hebrew
Default : No
Forced : No

Text #12
ID : 14
Format : UTF-8
Codec ID : S_TEXT/UTF8
Codec ID/Info : UTF-8 Plain Text
Duration : 1 h 52 min
Bit rate : 73 b/s
Frame rate : 0.285 FPS
Count of elements : 1930
Stream size : 60.8 KiB (0%)
Title : magyar
Language : Hungarian
Default : No
Forced : No

Text #13
ID : 15
Format : UTF-8
Codec ID : S_TEXT/UTF8
Codec ID/Info : UTF-8 Plain Text
Duration : 1 h 52 min
Bit rate : 67 b/s
Frame rate : 0.286 FPS
Count of elements : 1935
Stream size : 55.6 KiB (0%)
Title : 한국어
Language : Korean
Default : No
Forced : No

Text #14
ID : 16
Format : UTF-8
Codec ID : S_TEXT/UTF8
Codec ID/Info : UTF-8 Plain Text
Duration : 1 h 52 min
Bit rate : 73 b/s
Frame rate : 0.286 FPS
Count of elements : 1936
Stream size : 60.5 KiB (0%)
Title : lietuvių
Language : Lithuanian
Default : No
Forced : No

Text #15
ID : 17
Format : UTF-8
Codec ID : S_TEXT/UTF8
Codec ID/Info : UTF-8 Plain Text
Duration : 1 h 52 min
Bit rate : 68 b/s
Frame rate : 0.280 FPS
Count of elements : 1895
Stream size : 56.2 KiB (0%)
Title : latviešu
Language : Latvian
Default : No
Forced : No

Text #16
ID : 18
Format : UTF-8
Codec ID : S_TEXT/UTF8
Codec ID/Info : UTF-8 Plain Text
Duration : 1 h 52 min
Bit rate : 59 b/s
Frame rate : 0.192 FPS
Count of elements : 1296
Stream size : 49.3 KiB (0%)
Title : Nederlands
Language : Dutch
Default : No
Forced : No

Text #17
ID : 19
Format : UTF-8
Codec ID : S_TEXT/UTF8
Codec ID/Info : UTF-8 Plain Text
Duration : 1 h 52 min
Bit rate : 63 b/s
Frame rate : 0.220 FPS
Count of elements : 1486
Stream size : 52.6 KiB (0%)
Title : norsk
Language : Norwegian
Default : No
Forced : No

Text #18
ID : 20
Format : UTF-8
Codec ID : S_TEXT/UTF8
Codec ID/Info : UTF-8 Plain Text
Duration : 1 h 52 min
Bit rate : 62 b/s
Frame rate : 0.277 FPS
Count of elements : 1875
Stream size : 52.0 KiB (0%)
Title : polski
Language : Polish
Default : No
Forced : No

Text #19
ID : 21
Format : UTF-8
Codec ID : S_TEXT/UTF8
Codec ID/Info : UTF-8 Plain Text
Duration : 1 h 52 min
Bit rate : 71 b/s
Frame rate : 0.286 FPS
Count of elements : 1938
Stream size : 58.9 KiB (0%)
Title : Português (Brasil)
Language : Portuguese
Default : No
Forced : No

Text #20
ID : 22
Format : UTF-8
Codec ID : S_TEXT/UTF8
Codec ID/Info : UTF-8 Plain Text
Duration : 1 h 52 min
Bit rate : 79 b/s
Frame rate : 0.291 FPS
Count of elements : 1968
Stream size : 66.0 KiB (0%)
Title : português (Portugal)
Language : Portuguese
Default : No
Forced : No

Text #21
ID : 23
Format : UTF-8
Codec ID : S_TEXT/UTF8
Codec ID/Info : UTF-8 Plain Text
Duration : 1 h 52 min
Bit rate : 108 b/s
Frame rate : 0.288 FPS
Count of elements : 1947
Stream size : 89.6 KiB (0%)
Title : Русский
Language : Russian
Default : No
Forced : No

Text #22
ID : 24
Format : UTF-8
Codec ID : S_TEXT/UTF8
Codec ID/Info : UTF-8 Plain Text
Duration : 1 h 52 min
Bit rate : 62 b/s
Frame rate : 0.235 FPS
Count of elements : 1590
Stream size : 51.8 KiB (0%)
Title : slovenščina
Language : Slovenian
Default : No
Forced : No

Text #23
ID : 25
Format : UTF-8
Codec ID : S_TEXT/UTF8
Codec ID/Info : UTF-8 Plain Text
Duration : 1 h 52 min
Bit rate : 65 b/s
Frame rate : 0.210 FPS
Count of elements : 1424
Stream size : 54.1 KiB (0%)
Title : Svenska
Language : Swedish
Default : No
Forced : No

Text #24
ID : 26
Format : UTF-8
Codec ID : S_TEXT/UTF8
Codec ID/Info : UTF-8 Plain Text
Duration : 1 h 52 min
Bit rate : 163 b/s
Frame rate : 0.288 FPS
Count of elements : 1951
Stream size : 135 KiB (0%)
Title : ไทย
Language : Thai
Default : No
Forced : No

Text #25
ID : 27
Format : UTF-8
Codec ID : S_TEXT/UTF8
Codec ID/Info : UTF-8 Plain Text
Duration : 1 h 52 min
Bit rate : 76 b/s
Frame rate : 0.283 FPS
Count of elements : 1913
Stream size : 63.2 KiB (0%)
Title : Türkçe
Language : Turkish
Default : No
Forced : No

Text #26
ID : 28
Format : UTF-8
Codec ID : S_TEXT/UTF8
Codec ID/Info : UTF-8 Plain Text
Duration : 1 h 53 min
Bit rate : 69 b/s
Frame rate : 0.354 FPS
Count of elements : 2416
Stream size : 57.5 KiB (0%)
Title : 中文(简体)
Language : Chinese
Default : No
Forced : No

Text #27
ID : 29
Format : UTF-8
Codec ID : S_TEXT/UTF8
Codec ID/Info : UTF-8 Plain Text
Duration : 1 h 52 min
Bit rate : 66 b/s
Frame rate : 0.288 FPS
Count of elements : 1949
Stream size : 54.7 KiB (0%)
Title : 廣東話
Language : Chinese
Default : No
Forced : No

Text #28
ID : 30
Format : UTF-8
Codec ID : S_TEXT/UTF8
Codec ID/Info : UTF-8 Plain Text
Duration : 1 h 52 min
Bit rate : 58 b/s
Frame rate : 0.285 FPS
Count of elements : 1929
Stream size : 48.5 KiB (0%)
Title : 中文(繁體)
Language : Chinese
Default : No
Forced : No

Text #29
ID : 31
Format : UTF-8
Codec ID : S_TEXT/UTF8
Codec ID/Info : UTF-8 Plain Text
Duration : 1 h 53 min
Bit rate : 79 b/s
Frame rate : 0.241 FPS
Count of elements : 1643
Stream size : 66.0 KiB (0%)
Title : Deutsch (Deutschland) (SDH)
Language : German
Default : No
Forced : No

Text #30
ID : 32
Format : UTF-8
Codec ID : S_TEXT/UTF8
Codec ID/Info : UTF-8 Plain Text
Duration : 1 h 48 min
Bit rate : 80 b/s
Frame rate : 0.336 FPS
Count of elements : 2183
Stream size : 64.0 KiB (0%)
Title : Italiano (Italia) (SDH)
Language : Italian
Default : No
Forced : No

[collapse]
Download Link(s)

Download

Direct download files get automatically deleted after a month or so. Posted on : 09/11/2023

[collapse]
Magnet Link

Magnet

Barbie.2023.1080p.WEB.h264-ETHEL.TGx-5.8 GB

[collapse]

Media information

General
Format : Matroska
Format version : Version 4
File size : 994 MiB
Duration : 1 h 55 min
Overall bit rate : 1 207 kb/s
Frame rate : 23.976 FPS
Movie name : Barbie.2023.720p.10bit.WEBRip.6CH.x265.HEVC

Video
ID : 1
Format : HEVC
Format/Info : High Efficiency Video Coding
Format profile : Main [email protected]@Main
Codec ID : V_MPEGH/ISO/HEVC
Duration : 1 h 55 min
Bit rate : 995 kb/s
Width : 1 280 pixels
Height : 640 pixels
Display aspect ratio : 2.000
Frame rate mode : Constant
Frame rate : 23.976 (24000/1001) FPS
Color space : YUV
Chroma subsampling : 4:2:0
Bit depth : 10 bits
Bits/(Pixel*Frame) : 0.051
Stream size : 819 MiB (82%)
Default : Yes
Forced : No
Color range : Limited
Color primaries : BT.709
Transfer characteristics : BT.709
Matrix coefficients : BT.709

Audio
ID : 2
Format : AAC LC SBR
Commercial name : HE-AAC
Format settings : Explicit
Codec ID : A_AAC-2
Duration : 1 h 54 min
Bit rate : 207 kb/s
Channel(s) : 6 channels
Channel layout : C L R Ls Rs LFE
Sampling rate : 48.0 kHz
Frame rate : 23.438 FPS (2048 SPF)
Compression mode : Lossy
Delay relative to video : 23 ms
Stream size : 169 MiB (17%)
Language : English
Default : Yes
Forced : No

Text #1
ID : 3
Format : UTF-8
Codec ID : S_TEXT/UTF8
Codec ID/Info : UTF-8 Plain Text
Duration : 1 h 51 min
Bit rate : 104 b/s
Frame rate : 0.379 FPS
Count of elements : 2541
Stream size : 85.7 KiB (0%)
Title : English (CC)
Language : English
Default : Yes
Forced : No

Text #2
ID : 4
Format : UTF-8
Codec ID : S_TEXT/UTF8
Codec ID/Info : UTF-8 Plain Text
Duration : 1 h 52 min
Bit rate : 107 b/s
Frame rate : 0.288 FPS
Count of elements : 1949
Stream size : 88.7 KiB (0%)
Title : български
Language : Bulgarian
Default : No
Forced : No

Text #3
ID : 5
Format : UTF-8
Codec ID : S_TEXT/UTF8
Codec ID/Info : UTF-8 Plain Text
Duration : 1 h 52 min
Bit rate : 69 b/s
Frame rate : 0.283 FPS
Count of elements : 1916
Stream size : 57.5 KiB (0%)
Title : Čeština
Language : Czech
Default : No
Forced : No

Text #4
ID : 6
Format : UTF-8
Codec ID : S_TEXT/UTF8
Codec ID/Info : UTF-8 Plain Text
Duration : 1 h 52 min
Bit rate : 60 b/s
Frame rate : 0.184 FPS
Count of elements : 1242
Stream size : 49.8 KiB (0%)
Title : dansk
Language : Danish
Default : No
Forced : No

Text #5
ID : 7
Format : UTF-8
Codec ID : S_TEXT/UTF8
Codec ID/Info : UTF-8 Plain Text
Duration : 1 h 52 min
Bit rate : 117 b/s
Frame rate : 0.287 FPS
Count of elements : 1939
Stream size : 97.4 KiB (0%)
Title : Ελληνικά
Language : Greek
Default : No
Forced : No

Text #6
ID : 8
Format : UTF-8
Codec ID : S_TEXT/UTF8
Codec ID/Info : UTF-8 Plain Text
Duration : 1 h 52 min
Bit rate : 69 b/s
Frame rate : 0.278 FPS
Count of elements : 1882
Stream size : 57.0 KiB (0%)
Title : Español (España)
Language : Spanish
Default : No
Forced : No

Text #7
ID : 9
Format : UTF-8
Codec ID : S_TEXT/UTF8
Codec ID/Info : UTF-8 Plain Text
Duration : 1 h 52 min
Bit rate : 72 b/s
Frame rate : 0.285 FPS
Count of elements : 1931
Stream size : 60.3 KiB (0%)
Title : Español (Latinoamérica)
Language : Spanish
Default : No
Forced : No

Text #8
ID : 10
Format : UTF-8
Codec ID : S_TEXT/UTF8
Codec ID/Info : UTF-8 Plain Text
Duration : 1 h 52 min
Bit rate : 65 b/s
Frame rate : 0.284 FPS
Count of elements : 1919
Stream size : 54.2 KiB (0%)
Title : eesti
Language : Estonian
Default : No
Forced : No

Text #9
ID : 11
Format : UTF-8
Codec ID : S_TEXT/UTF8
Codec ID/Info : UTF-8 Plain Text
Duration : 1 h 52 min
Bit rate : 67 b/s
Frame rate : 0.284 FPS
Count of elements : 1919
Stream size : 55.6 KiB (0%)
Title : Suomi
Language : Finnish
Default : No
Forced : No

Text #10
ID : 12
Format : UTF-8
Codec ID : S_TEXT/UTF8
Codec ID/Info : UTF-8 Plain Text
Duration : 1 h 52 min
Bit rate : 58 b/s
Frame rate : 0.265 FPS
Count of elements : 1791
Stream size : 47.9 KiB (0%)
Title : Français (France)
Language : French
Default : No
Forced : No

Text #11
ID : 13
Format : UTF-8
Codec ID : S_TEXT/UTF8
Codec ID/Info : UTF-8 Plain Text
Duration : 1 h 52 min
Bit rate : 110 b/s
Frame rate : 0.288 FPS
Count of elements : 1946
Stream size : 91.7 KiB (0%)
Title : עברית
Language : Hebrew
Default : No
Forced : No

Text #12
ID : 14
Format : UTF-8
Codec ID : S_TEXT/UTF8
Codec ID/Info : UTF-8 Plain Text
Duration : 1 h 52 min
Bit rate : 73 b/s
Frame rate : 0.285 FPS
Count of elements : 1930
Stream size : 60.8 KiB (0%)
Title : magyar
Language : Hungarian
Default : No
Forced : No

Text #13
ID : 15
Format : UTF-8
Codec ID : S_TEXT/UTF8
Codec ID/Info : UTF-8 Plain Text
Duration : 1 h 52 min
Bit rate : 67 b/s
Frame rate : 0.286 FPS
Count of elements : 1935
Stream size : 55.6 KiB (0%)
Title : 한국어
Language : Korean
Default : No
Forced : No

Text #14
ID : 16
Format : UTF-8
Codec ID : S_TEXT/UTF8
Codec ID/Info : UTF-8 Plain Text
Duration : 1 h 52 min
Bit rate : 73 b/s
Frame rate : 0.286 FPS
Count of elements : 1936
Stream size : 60.5 KiB (0%)
Title : lietuvių
Language : Lithuanian
Default : No
Forced : No

Text #15
ID : 17
Format : UTF-8
Codec ID : S_TEXT/UTF8
Codec ID/Info : UTF-8 Plain Text
Duration : 1 h 52 min
Bit rate : 68 b/s
Frame rate : 0.280 FPS
Count of elements : 1895
Stream size : 56.2 KiB (0%)
Title : latviešu
Language : Latvian
Default : No
Forced : No

Text #16
ID : 18
Format : UTF-8
Codec ID : S_TEXT/UTF8
Codec ID/Info : UTF-8 Plain Text
Duration : 1 h 52 min
Bit rate : 59 b/s
Frame rate : 0.192 FPS
Count of elements : 1296
Stream size : 49.3 KiB (0%)
Title : Nederlands
Language : Dutch
Default : No
Forced : No

Text #17
ID : 19
Format : UTF-8
Codec ID : S_TEXT/UTF8
Codec ID/Info : UTF-8 Plain Text
Duration : 1 h 52 min
Bit rate : 63 b/s
Frame rate : 0.220 FPS
Count of elements : 1486
Stream size : 52.6 KiB (0%)
Title : norsk
Language : Norwegian
Default : No
Forced : No

Text #18
ID : 20
Format : UTF-8
Codec ID : S_TEXT/UTF8
Codec ID/Info : UTF-8 Plain Text
Duration : 1 h 52 min
Bit rate : 62 b/s
Frame rate : 0.277 FPS
Count of elements : 1875
Stream size : 52.0 KiB (0%)
Title : polski
Language : Polish
Default : No
Forced : No

Text #19
ID : 21
Format : UTF-8
Codec ID : S_TEXT/UTF8
Codec ID/Info : UTF-8 Plain Text
Duration : 1 h 52 min
Bit rate : 71 b/s
Frame rate : 0.286 FPS
Count of elements : 1938
Stream size : 58.9 KiB (0%)
Title : Português (Brasil)
Language : Portuguese
Default : No
Forced : No

Text #20
ID : 22
Format : UTF-8
Codec ID : S_TEXT/UTF8
Codec ID/Info : UTF-8 Plain Text
Duration : 1 h 52 min
Bit rate : 79 b/s
Frame rate : 0.291 FPS
Count of elements : 1968
Stream size : 66.0 KiB (0%)
Title : português (Portugal)
Language : Portuguese
Default : No
Forced : No

Text #21
ID : 23
Format : UTF-8
Codec ID : S_TEXT/UTF8
Codec ID/Info : UTF-8 Plain Text
Duration : 1 h 52 min
Bit rate : 108 b/s
Frame rate : 0.288 FPS
Count of elements : 1947
Stream size : 89.6 KiB (0%)
Title : Русский
Language : Russian
Default : No
Forced : No

Text #22
ID : 24
Format : UTF-8
Codec ID : S_TEXT/UTF8
Codec ID/Info : UTF-8 Plain Text
Duration : 1 h 52 min
Bit rate : 62 b/s
Frame rate : 0.235 FPS
Count of elements : 1590
Stream size : 51.8 KiB (0%)
Title : slovenščina
Language : Slovenian
Default : No
Forced : No

Text #23
ID : 25
Format : UTF-8
Codec ID : S_TEXT/UTF8
Codec ID/Info : UTF-8 Plain Text
Duration : 1 h 52 min
Bit rate : 65 b/s
Frame rate : 0.210 FPS
Count of elements : 1424
Stream size : 54.1 KiB (0%)
Title : Svenska
Language : Swedish
Default : No
Forced : No

Text #24
ID : 26
Format : UTF-8
Codec ID : S_TEXT/UTF8
Codec ID/Info : UTF-8 Plain Text
Duration : 1 h 52 min
Bit rate : 163 b/s
Frame rate : 0.288 FPS
Count of elements : 1951
Stream size : 135 KiB (0%)
Title : ไทย
Language : Thai
Default : No
Forced : No

Text #25
ID : 27
Format : UTF-8
Codec ID : S_TEXT/UTF8
Codec ID/Info : UTF-8 Plain Text
Duration : 1 h 52 min
Bit rate : 76 b/s
Frame rate : 0.283 FPS
Count of elements : 1913
Stream size : 63.2 KiB (0%)
Title : Türkçe
Language : Turkish
Default : No
Forced : No

Text #26
ID : 28
Format : UTF-8
Codec ID : S_TEXT/UTF8
Codec ID/Info : UTF-8 Plain Text
Duration : 1 h 53 min
Bit rate : 69 b/s
Frame rate : 0.354 FPS
Count of elements : 2416
Stream size : 57.5 KiB (0%)
Title : 中文(简体)
Language : Chinese
Default : No
Forced : No

Text #27
ID : 29
Format : UTF-8
Codec ID : S_TEXT/UTF8
Codec ID/Info : UTF-8 Plain Text
Duration : 1 h 52 min
Bit rate : 66 b/s
Frame rate : 0.288 FPS
Count of elements : 1949
Stream size : 54.7 KiB (0%)
Title : 廣東話
Language : Chinese
Default : No
Forced : No

Text #28
ID : 30
Format : UTF-8
Codec ID : S_TEXT/UTF8
Codec ID/Info : UTF-8 Plain Text
Duration : 1 h 52 min
Bit rate : 58 b/s
Frame rate : 0.285 FPS
Count of elements : 1929
Stream size : 48.5 KiB (0%)
Title : 中文(繁體)
Language : Chinese
Default : No
Forced : No

Text #29
ID : 31
Format : UTF-8
Codec ID : S_TEXT/UTF8
Codec ID/Info : UTF-8 Plain Text
Duration : 1 h 53 min
Bit rate : 79 b/s
Frame rate : 0.241 FPS
Count of elements : 1643
Stream size : 66.0 KiB (0%)
Title : Deutsch (Deutschland) (SDH)
Language : German
Default : No
Forced : No

Text #30
ID : 32
Format : UTF-8
Codec ID : S_TEXT/UTF8
Codec ID/Info : UTF-8 Plain Text
Duration : 1 h 48 min
Bit rate : 80 b/s
Frame rate : 0.336 FPS
Count of elements : 2183
Stream size : 64.0 KiB (0%)
Title : Italiano (Italia) (SDH)
Language : Italian
Default : No
Forced : No

[collapse]
Download Link(s)

Download

Direct download files get automatically deleted after a month or so. Posted on : 09/11/2023

[collapse]
Magnet Link

Magnet

Barbie.2023.1080p.WEB.h264-ETHEL.TGx-5.8 GB

[collapse]

You may also like...

error: nah :p~