Badland Hunters (2024)

Original title: Hwang-ya | TV-MA | 1h 47min | Action, Adventure, Drama

After a major earthquake transforms Seoul into an apocalyptic wasteland.

Watch trailer

Media information

General
Format : Matroska
Format version : Version 4
File size : 1.70 GiB
Duration : 1 h 48 min
Overall bit rate : 2 244 kb/s
Frame rate : 23.976 FPS
Movie name : Badland.Hunters.A.K.A.Hwang-ya.2024.DUAL-AUDIO.KOR-ENG.1080p.10bit.WEBRip.6CH.x265.HEVC

Video
ID : 1
Format : HEVC
Format/Info : High Efficiency Video Coding
Format profile : Main 10@L4@Main
Codec ID : V_MPEGH/ISO/HEVC
Duration : 1 h 48 min
Bit rate : 1 817 kb/s
Width : 1 920 pixels
Height : 808 pixels
Display aspect ratio : 2.39:1
Frame rate mode : Constant
Frame rate : 23.976 (24000/1001) FPS
Color space : YUV
Chroma subsampling : 4:2:0
Bit depth : 10 bits
Bits/(Pixel*Frame) : 0.049
Stream size : 1.38 GiB (81%)
Default : Yes
Forced : No

Audio #1
ID : 2
Format : AAC LC SBR
Commercial name : HE-AAC
Format settings : Explicit
Codec ID : A_AAC-2
Duration : 1 h 48 min
Bit rate : 211 kb/s
Channel(s) : 6 channels
Channel layout : C L R Ls Rs LFE
Sampling rate : 48.0 kHz
Frame rate : 23.438 FPS (2048 SPF)
Compression mode : Lossy
Delay relative to video : 23 ms
Stream size : 164 MiB (9%)
Language : Korean
Default : Yes
Forced : No

Audio #2
ID : 3
Format : AAC LC SBR
Commercial name : HE-AAC
Format settings : Explicit
Codec ID : A_AAC-2
Duration : 1 h 48 min
Bit rate : 210 kb/s
Channel(s) : 6 channels
Channel layout : C L R Ls Rs LFE
Sampling rate : 48.0 kHz
Frame rate : 23.438 FPS (2048 SPF)
Compression mode : Lossy
Delay relative to video : 23 ms
Stream size : 163 MiB (9%)
Language : English
Default : No
Forced : No

Text #1
ID : 4
Format : UTF-8
Codec ID : S_TEXT/UTF8
Codec ID/Info : UTF-8 Plain Text
Duration : 1 h 44 min
Bit rate : 47 b/s
Frame rate : 0.190 FPS
Count of elements : 1191
Stream size : 36.2 KiB (0%)
Language : English
Default : Yes
Forced : No

Text #2
ID : 5
Format : UTF-8
Codec ID : S_TEXT/UTF8
Codec ID/Info : UTF-8 Plain Text
Duration : 1 h 2 min
Bit rate : 0 b/s
Frame rate : 0.002 FPS
Count of elements : 9
Stream size : 420 Bytes (0%)
Title : Dub | Forced
Language : English
Default : No
Forced : Yes

Text #3
ID : 6
Format : UTF-8
Codec ID : S_TEXT/UTF8
Codec ID/Info : UTF-8 Plain Text
Duration : 1 h 44 min
Bit rate : 54 b/s
Frame rate : 0.212 FPS
Count of elements : 1333
Stream size : 42.0 KiB (0%)
Title : Dub
Language : English
Default : No
Forced : No

Text #4
ID : 7
Format : UTF-8
Codec ID : S_TEXT/UTF8
Codec ID/Info : UTF-8 Plain Text
Duration : 1 h 45 min
Bit rate : 65 b/s
Frame rate : 0.268 FPS
Count of elements : 1695
Stream size : 50.7 KiB (0%)
Title : Dub | SDH
Language : English
Default : No
Forced : No

Text #5
ID : 8
Format : UTF-8
Codec ID : S_TEXT/UTF8
Codec ID/Info : UTF-8 Plain Text
Duration : 1 s 585 ms
Bit rate : 70 b/s
Frame rate : 0.631 FPS
Count of elements : 1
Stream size : 14.0 Bytes (0%)
Title : Forced
Language : Korean
Default : No
Forced : No

Text #6
ID : 9
Format : UTF-8
Codec ID : S_TEXT/UTF8
Codec ID/Info : UTF-8 Plain Text
Duration : 1 h 41 min
Bit rate : 57 b/s
Frame rate : 0.241 FPS
Count of elements : 1462
Stream size : 42.4 KiB (0%)
Language : Korean
Default : No
Forced : No

Text #7
ID : 10
Format : UTF-8
Codec ID : S_TEXT/UTF8
Codec ID/Info : UTF-8 Plain Text
Duration : 1 h 42 min
Bit rate : 90 b/s
Frame rate : 0.341 FPS
Count of elements : 2091
Stream size : 68.0 KiB (0%)
Title : SDH
Language : Korean
Default : No
Forced : No

Text #8
ID : 11
Format : UTF-8
Codec ID : S_TEXT/UTF8
Codec ID/Info : UTF-8 Plain Text
Duration : 1 h 44 min
Bit rate : 76 b/s
Frame rate : 0.188 FPS
Count of elements : 1182
Stream size : 58.6 KiB (0%)
Language : Arabic
Default : No
Forced : No

Text #9
ID : 12
Format : UTF-8
Codec ID : S_TEXT/UTF8
Codec ID/Info : UTF-8 Plain Text
Duration : 1 h 44 min
Bit rate : 44 b/s
Frame rate : 0.186 FPS
Count of elements : 1170
Stream size : 34.2 KiB (0%)
Language : Czech
Default : No
Forced : No

Text #10
ID : 13
Format : UTF-8
Codec ID : S_TEXT/UTF8
Codec ID/Info : UTF-8 Plain Text
Duration : 1 h 44 min
Bit rate : 40 b/s
Frame rate : 0.182 FPS
Count of elements : 1142
Stream size : 30.8 KiB (0%)
Language : Danish
Default : No
Forced : No

Text #11
ID : 14
Format : UTF-8
Codec ID : S_TEXT/UTF8
Codec ID/Info : UTF-8 Plain Text
Duration : 1 h 44 min
Bit rate : 43 b/s
Frame rate : 0.182 FPS
Count of elements : 1142
Stream size : 33.4 KiB (0%)
Language : German
Default : No
Forced : No

Text #12
ID : 15
Format : UTF-8
Codec ID : S_TEXT/UTF8
Codec ID/Info : UTF-8 Plain Text
Duration : 1 h 44 min
Bit rate : 78 b/s
Frame rate : 0.192 FPS
Count of elements : 1206
Stream size : 60.0 KiB (0%)
Language : Greek
Default : No
Forced : No

Text #13
ID : 16
Format : UTF-8
Codec ID : S_TEXT/UTF8
Codec ID/Info : UTF-8 Plain Text
Duration : 1 h 44 min
Bit rate : 44 b/s
Frame rate : 0.189 FPS
Count of elements : 1188
Stream size : 33.8 KiB (0%)
Title : Latin American
Language : Spanish (Latin America)
Default : No
Forced : No

Text #14
ID : 17
Format : UTF-8
Codec ID : S_TEXT/UTF8
Codec ID/Info : UTF-8 Plain Text
Duration : 1 h 44 min
Bit rate : 43 b/s
Frame rate : 0.182 FPS
Count of elements : 1143
Stream size : 33.2 KiB (0%)
Language : Spanish (ES)
Default : No
Forced : No

Text #15
ID : 18
Format : UTF-8
Codec ID : S_TEXT/UTF8
Codec ID/Info : UTF-8 Plain Text
Duration : 1 h 44 min
Bit rate : 40 b/s
Frame rate : 0.155 FPS
Count of elements : 972
Stream size : 31.1 KiB (0%)
Language : Finnish
Default : No
Forced : No

Text #16
ID : 19
Format : UTF-8
Codec ID : S_TEXT/UTF8
Codec ID/Info : UTF-8 Plain Text
Duration : 1 h 44 min
Bit rate : 45 b/s
Frame rate : 0.175 FPS
Count of elements : 1099
Stream size : 35.0 KiB (0%)
Language : Filipino
Default : No
Forced : No

Text #17
ID : 20
Format : UTF-8
Codec ID : S_TEXT/UTF8
Codec ID/Info : UTF-8 Plain Text
Duration : 1 h 44 min
Bit rate : 46 b/s
Frame rate : 0.191 FPS
Count of elements : 1204
Stream size : 36.0 KiB (0%)
Language : French
Default : No
Forced : No

Text #18
ID : 21
Format : UTF-8
Codec ID : S_TEXT/UTF8
Codec ID/Info : UTF-8 Plain Text
Duration : 1 h 44 min
Bit rate : 73 b/s
Frame rate : 0.191 FPS
Count of elements : 1201
Stream size : 56.4 KiB (0%)
Language : Hebrew
Default : No
Forced : No

Text #19
ID : 22
Format : UTF-8
Codec ID : S_TEXT/UTF8
Codec ID/Info : UTF-8 Plain Text
Duration : 1 h 44 min
Bit rate : 39 b/s
Frame rate : 0.184 FPS
Count of elements : 1154
Stream size : 30.4 KiB (0%)
Language : Croatian
Default : No
Forced : No

Text #20
ID : 23
Format : UTF-8
Codec ID : S_TEXT/UTF8
Codec ID/Info : UTF-8 Plain Text
Duration : 1 h 44 min
Bit rate : 42 b/s
Frame rate : 0.189 FPS
Count of elements : 1189
Stream size : 32.6 KiB (0%)
Language : Hungarian
Default : No
Forced : No

Text #21
ID : 24
Format : UTF-8
Codec ID : S_TEXT/UTF8
Codec ID/Info : UTF-8 Plain Text
Duration : 1 h 44 min
Bit rate : 41 b/s
Frame rate : 0.189 FPS
Count of elements : 1189
Stream size : 31.7 KiB (0%)
Language : Indonesian
Default : No
Forced : No

Text #22
ID : 25
Format : UTF-8
Codec ID : S_TEXT/UTF8
Codec ID/Info : UTF-8 Plain Text
Duration : 1 h 44 min
Bit rate : 42 b/s
Frame rate : 0.186 FPS
Count of elements : 1171
Stream size : 32.6 KiB (0%)
Language : Italian
Default : No
Forced : No

Text #23
ID : 26
Format : UTF-8
Codec ID : S_TEXT/UTF8
Codec ID/Info : UTF-8 Plain Text
Duration : 1 h 44 min
Bit rate : 39 b/s
Frame rate : 0.203 FPS
Count of elements : 1278
Stream size : 30.7 KiB (0%)
Language : Japanese
Default : No
Forced : No

Text #24
ID : 27
Format : UTF-8
Codec ID : S_TEXT/UTF8
Codec ID/Info : UTF-8 Plain Text
Duration : 1 h 44 min
Bit rate : 46 b/s
Frame rate : 0.190 FPS
Count of elements : 1194
Stream size : 35.3 KiB (0%)
Language : Malay
Default : No
Forced : No

Text #25
ID : 28
Format : UTF-8
Codec ID : S_TEXT/UTF8
Codec ID/Info : UTF-8 Plain Text
Duration : 1 h 44 min
Bit rate : 41 b/s
Frame rate : 0.169 FPS
Count of elements : 1063
Stream size : 31.6 KiB (0%)
Language : Norwegian Bokmal
Default : No
Forced : No

Text #26
ID : 29
Format : UTF-8
Codec ID : S_TEXT/UTF8
Codec ID/Info : UTF-8 Plain Text
Duration : 1 h 44 min
Bit rate : 44 b/s
Frame rate : 0.176 FPS
Count of elements : 1105
Stream size : 34.5 KiB (0%)
Language : Dutch
Default : No
Forced : No

Text #27
ID : 30
Format : UTF-8
Codec ID : S_TEXT/UTF8
Codec ID/Info : UTF-8 Plain Text
Duration : 1 h 44 min
Bit rate : 41 b/s
Frame rate : 0.188 FPS
Count of elements : 1180
Stream size : 32.0 KiB (0%)
Language : Polish
Default : No
Forced : No

Text #28
ID : 31
Format : UTF-8
Codec ID : S_TEXT/UTF8
Codec ID/Info : UTF-8 Plain Text
Duration : 1 h 44 min
Bit rate : 43 b/s
Frame rate : 0.186 FPS
Count of elements : 1168
Stream size : 33.8 KiB (0%)
Title : Brazilian
Language : Portuguese (BR)
Default : No
Forced : No

Text #29
ID : 32
Format : UTF-8
Codec ID : S_TEXT/UTF8
Codec ID/Info : UTF-8 Plain Text
Duration : 1 h 44 min
Bit rate : 44 b/s
Frame rate : 0.173 FPS
Count of elements : 1088
Stream size : 34.0 KiB (0%)
Language : Portuguese (PT)
Default : No
Forced : No

Text #30
ID : 33
Format : UTF-8
Codec ID : S_TEXT/UTF8
Codec ID/Info : UTF-8 Plain Text
Duration : 1 h 44 min
Bit rate : 41 b/s
Frame rate : 0.181 FPS
Count of elements : 1138
Stream size : 32.2 KiB (0%)
Language : Romanian
Default : No
Forced : No

Text #31
ID : 34
Format : UTF-8
Codec ID : S_TEXT/UTF8
Codec ID/Info : UTF-8 Plain Text
Duration : 1 h 44 min
Bit rate : 72 b/s
Frame rate : 0.189 FPS
Count of elements : 1191
Stream size : 55.3 KiB (0%)
Language : Russian
Default : No
Forced : No

Text #32
ID : 35
Format : UTF-8
Codec ID : S_TEXT/UTF8
Codec ID/Info : UTF-8 Plain Text
Duration : 1 h 44 min
Bit rate : 43 b/s
Frame rate : 0.178 FPS
Count of elements : 1117
Stream size : 33.3 KiB (0%)
Language : Swedish
Default : No
Forced : No

Text #33
ID : 36
Format : UTF-8
Codec ID : S_TEXT/UTF8
Codec ID/Info : UTF-8 Plain Text
Duration : 1 h 44 min
Bit rate : 103 b/s
Frame rate : 0.191 FPS
Count of elements : 1198
Stream size : 79.4 KiB (0%)
Language : Thai
Default : No
Forced : No

Text #34
ID : 37
Format : UTF-8
Codec ID : S_TEXT/UTF8
Codec ID/Info : UTF-8 Plain Text
Duration : 1 h 44 min
Bit rate : 44 b/s
Frame rate : 0.166 FPS
Count of elements : 1046
Stream size : 33.8 KiB (0%)
Language : Turkish
Default : No
Forced : No

Text #35
ID : 38
Format : UTF-8
Codec ID : S_TEXT/UTF8
Codec ID/Info : UTF-8 Plain Text
Duration : 1 h 44 min
Bit rate : 69 b/s
Frame rate : 0.190 FPS
Count of elements : 1196
Stream size : 53.6 KiB (0%)
Language : Ukrainian
Default : No
Forced : No

Text #36
ID : 39
Format : UTF-8
Codec ID : S_TEXT/UTF8
Codec ID/Info : UTF-8 Plain Text
Duration : 1 h 44 min
Bit rate : 59 b/s
Frame rate : 0.193 FPS
Count of elements : 1215
Stream size : 45.6 KiB (0%)
Language : Vietnamese
Default : No
Forced : No

Text #37
ID : 40
Format : UTF-8
Codec ID : S_TEXT/UTF8
Codec ID/Info : UTF-8 Plain Text
Duration : 1 h 44 min
Bit rate : 41 b/s
Frame rate : 0.210 FPS
Count of elements : 1319
Stream size : 32.2 KiB (0%)
Title : Simplified
Language : Chinese (Simplified)
Default : No
Forced : No

Text #38
ID : 41
Format : UTF-8
Codec ID : S_TEXT/UTF8
Codec ID/Info : UTF-8 Plain Text
Duration : 1 h 44 min
Bit rate : 36 b/s
Frame rate : 0.198 FPS
Count of elements : 1243
Stream size : 28.0 KiB (0%)
Title : Traditional
Language : Chinese (Traditional)
Default : No
Forced : No

[collapse]
Download Link(s)

Download

Direct download files get automatically deleted after a month or so. Posted on : 01/28/2024

[collapse]
Magnet Link

Magnet

Badland.Hunters.2024.1080p.NF.WEB-DL.DUAL.DDP5.1.Atmos.H.264-ChromeIsMyLife-4.79 GB

[collapse]

Media information

General
Format : Matroska
Format version : Version 4
File size : 961 MiB
Duration : 1 h 48 min
Overall bit rate : 1 235 kb/s
Frame rate : 23.976 FPS
Movie name : Badland.Hunters.A.K.A.Hwang-ya.2024.DUAL-AUDIO.KOR-ENG.720p.10bit.WEBRip.6CH.x265.HEVC

Video
ID : 1
Format : HEVC
Format/Info : High Efficiency Video Coding
Format profile : Main [email protected]@Main
Codec ID : V_MPEGH/ISO/HEVC
Duration : 1 h 48 min
Bit rate : 808 kb/s
Width : 1 280 pixels
Height : 536 pixels
Display aspect ratio : 2.39:1
Frame rate mode : Constant
Frame rate : 23.976 (24000/1001) FPS
Color space : YUV
Chroma subsampling : 4:2:0
Bit depth : 10 bits
Bits/(Pixel*Frame) : 0.049
Stream size : 629 MiB (65%)
Default : Yes
Forced : No

Audio #1
ID : 2
Format : AAC LC SBR
Commercial name : HE-AAC
Format settings : Explicit
Codec ID : A_AAC-2
Duration : 1 h 48 min
Bit rate : 211 kb/s
Channel(s) : 6 channels
Channel layout : C L R Ls Rs LFE
Sampling rate : 48.0 kHz
Frame rate : 23.438 FPS (2048 SPF)
Compression mode : Lossy
Delay relative to video : 23 ms
Stream size : 164 MiB (17%)
Language : Korean
Default : Yes
Forced : No

Audio #2
ID : 3
Format : AAC LC SBR
Commercial name : HE-AAC
Format settings : Explicit
Codec ID : A_AAC-2
Duration : 1 h 48 min
Bit rate : 210 kb/s
Channel(s) : 6 channels
Channel layout : C L R Ls Rs LFE
Sampling rate : 48.0 kHz
Frame rate : 23.438 FPS (2048 SPF)
Compression mode : Lossy
Delay relative to video : 23 ms
Stream size : 163 MiB (17%)
Language : English
Default : No
Forced : No

Text #1
ID : 4
Format : UTF-8
Codec ID : S_TEXT/UTF8
Codec ID/Info : UTF-8 Plain Text
Duration : 1 h 44 min
Bit rate : 47 b/s
Frame rate : 0.190 FPS
Count of elements : 1191
Stream size : 36.2 KiB (0%)
Language : English
Default : Yes
Forced : No

Text #2
ID : 5
Format : UTF-8
Codec ID : S_TEXT/UTF8
Codec ID/Info : UTF-8 Plain Text
Duration : 1 h 2 min
Bit rate : 0 b/s
Frame rate : 0.002 FPS
Count of elements : 9
Stream size : 420 Bytes (0%)
Title : Dub | Forced
Language : English
Default : No
Forced : Yes

Text #3
ID : 6
Format : UTF-8
Codec ID : S_TEXT/UTF8
Codec ID/Info : UTF-8 Plain Text
Duration : 1 h 44 min
Bit rate : 54 b/s
Frame rate : 0.212 FPS
Count of elements : 1333
Stream size : 42.0 KiB (0%)
Title : Dub
Language : English
Default : No
Forced : No

Text #4
ID : 7
Format : UTF-8
Codec ID : S_TEXT/UTF8
Codec ID/Info : UTF-8 Plain Text
Duration : 1 h 45 min
Bit rate : 65 b/s
Frame rate : 0.268 FPS
Count of elements : 1695
Stream size : 50.7 KiB (0%)
Title : Dub | SDH
Language : English
Default : No
Forced : No

Text #5
ID : 8
Format : UTF-8
Codec ID : S_TEXT/UTF8
Codec ID/Info : UTF-8 Plain Text
Duration : 1 s 585 ms
Bit rate : 70 b/s
Frame rate : 0.631 FPS
Count of elements : 1
Stream size : 14.0 Bytes (0%)
Title : Forced
Language : Korean
Default : No
Forced : No

Text #6
ID : 9
Format : UTF-8
Codec ID : S_TEXT/UTF8
Codec ID/Info : UTF-8 Plain Text
Duration : 1 h 41 min
Bit rate : 57 b/s
Frame rate : 0.241 FPS
Count of elements : 1462
Stream size : 42.4 KiB (0%)
Language : Korean
Default : No
Forced : No

Text #7
ID : 10
Format : UTF-8
Codec ID : S_TEXT/UTF8
Codec ID/Info : UTF-8 Plain Text
Duration : 1 h 42 min
Bit rate : 90 b/s
Frame rate : 0.341 FPS
Count of elements : 2091
Stream size : 68.0 KiB (0%)
Title : SDH
Language : Korean
Default : No
Forced : No

Text #8
ID : 11
Format : UTF-8
Codec ID : S_TEXT/UTF8
Codec ID/Info : UTF-8 Plain Text
Duration : 1 h 44 min
Bit rate : 76 b/s
Frame rate : 0.188 FPS
Count of elements : 1182
Stream size : 58.6 KiB (0%)
Language : Arabic
Default : No
Forced : No

Text #9
ID : 12
Format : UTF-8
Codec ID : S_TEXT/UTF8
Codec ID/Info : UTF-8 Plain Text
Duration : 1 h 44 min
Bit rate : 44 b/s
Frame rate : 0.186 FPS
Count of elements : 1170
Stream size : 34.2 KiB (0%)
Language : Czech
Default : No
Forced : No

Text #10
ID : 13
Format : UTF-8
Codec ID : S_TEXT/UTF8
Codec ID/Info : UTF-8 Plain Text
Duration : 1 h 44 min
Bit rate : 40 b/s
Frame rate : 0.182 FPS
Count of elements : 1142
Stream size : 30.8 KiB (0%)
Language : Danish
Default : No
Forced : No

Text #11
ID : 14
Format : UTF-8
Codec ID : S_TEXT/UTF8
Codec ID/Info : UTF-8 Plain Text
Duration : 1 h 44 min
Bit rate : 43 b/s
Frame rate : 0.182 FPS
Count of elements : 1142
Stream size : 33.4 KiB (0%)
Language : German
Default : No
Forced : No

Text #12
ID : 15
Format : UTF-8
Codec ID : S_TEXT/UTF8
Codec ID/Info : UTF-8 Plain Text
Duration : 1 h 44 min
Bit rate : 78 b/s
Frame rate : 0.192 FPS
Count of elements : 1206
Stream size : 60.0 KiB (0%)
Language : Greek
Default : No
Forced : No

Text #13
ID : 16
Format : UTF-8
Codec ID : S_TEXT/UTF8
Codec ID/Info : UTF-8 Plain Text
Duration : 1 h 44 min
Bit rate : 44 b/s
Frame rate : 0.189 FPS
Count of elements : 1188
Stream size : 33.8 KiB (0%)
Title : Latin American
Language : Spanish (Latin America)
Default : No
Forced : No

Text #14
ID : 17
Format : UTF-8
Codec ID : S_TEXT/UTF8
Codec ID/Info : UTF-8 Plain Text
Duration : 1 h 44 min
Bit rate : 43 b/s
Frame rate : 0.182 FPS
Count of elements : 1143
Stream size : 33.2 KiB (0%)
Language : Spanish (ES)
Default : No
Forced : No

Text #15
ID : 18
Format : UTF-8
Codec ID : S_TEXT/UTF8
Codec ID/Info : UTF-8 Plain Text
Duration : 1 h 44 min
Bit rate : 40 b/s
Frame rate : 0.155 FPS
Count of elements : 972
Stream size : 31.1 KiB (0%)
Language : Finnish
Default : No
Forced : No

Text #16
ID : 19
Format : UTF-8
Codec ID : S_TEXT/UTF8
Codec ID/Info : UTF-8 Plain Text
Duration : 1 h 44 min
Bit rate : 45 b/s
Frame rate : 0.175 FPS
Count of elements : 1099
Stream size : 35.0 KiB (0%)
Language : Filipino
Default : No
Forced : No

Text #17
ID : 20
Format : UTF-8
Codec ID : S_TEXT/UTF8
Codec ID/Info : UTF-8 Plain Text
Duration : 1 h 44 min
Bit rate : 46 b/s
Frame rate : 0.191 FPS
Count of elements : 1204
Stream size : 36.0 KiB (0%)
Language : French
Default : No
Forced : No

Text #18
ID : 21
Format : UTF-8
Codec ID : S_TEXT/UTF8
Codec ID/Info : UTF-8 Plain Text
Duration : 1 h 44 min
Bit rate : 73 b/s
Frame rate : 0.191 FPS
Count of elements : 1201
Stream size : 56.4 KiB (0%)
Language : Hebrew
Default : No
Forced : No

Text #19
ID : 22
Format : UTF-8
Codec ID : S_TEXT/UTF8
Codec ID/Info : UTF-8 Plain Text
Duration : 1 h 44 min
Bit rate : 39 b/s
Frame rate : 0.184 FPS
Count of elements : 1154
Stream size : 30.4 KiB (0%)
Language : Croatian
Default : No
Forced : No

Text #20
ID : 23
Format : UTF-8
Codec ID : S_TEXT/UTF8
Codec ID/Info : UTF-8 Plain Text
Duration : 1 h 44 min
Bit rate : 42 b/s
Frame rate : 0.189 FPS
Count of elements : 1189
Stream size : 32.6 KiB (0%)
Language : Hungarian
Default : No
Forced : No

Text #21
ID : 24
Format : UTF-8
Codec ID : S_TEXT/UTF8
Codec ID/Info : UTF-8 Plain Text
Duration : 1 h 44 min
Bit rate : 41 b/s
Frame rate : 0.189 FPS
Count of elements : 1189
Stream size : 31.7 KiB (0%)
Language : Indonesian
Default : No
Forced : No

Text #22
ID : 25
Format : UTF-8
Codec ID : S_TEXT/UTF8
Codec ID/Info : UTF-8 Plain Text
Duration : 1 h 44 min
Bit rate : 42 b/s
Frame rate : 0.186 FPS
Count of elements : 1171
Stream size : 32.6 KiB (0%)
Language : Italian
Default : No
Forced : No

Text #23
ID : 26
Format : UTF-8
Codec ID : S_TEXT/UTF8
Codec ID/Info : UTF-8 Plain Text
Duration : 1 h 44 min
Bit rate : 39 b/s
Frame rate : 0.203 FPS
Count of elements : 1278
Stream size : 30.7 KiB (0%)
Language : Japanese
Default : No
Forced : No

Text #24
ID : 27
Format : UTF-8
Codec ID : S_TEXT/UTF8
Codec ID/Info : UTF-8 Plain Text
Duration : 1 h 44 min
Bit rate : 46 b/s
Frame rate : 0.190 FPS
Count of elements : 1194
Stream size : 35.3 KiB (0%)
Language : Malay
Default : No
Forced : No

Text #25
ID : 28
Format : UTF-8
Codec ID : S_TEXT/UTF8
Codec ID/Info : UTF-8 Plain Text
Duration : 1 h 44 min
Bit rate : 41 b/s
Frame rate : 0.169 FPS
Count of elements : 1063
Stream size : 31.6 KiB (0%)
Language : Norwegian Bokmal
Default : No
Forced : No

Text #26
ID : 29
Format : UTF-8
Codec ID : S_TEXT/UTF8
Codec ID/Info : UTF-8 Plain Text
Duration : 1 h 44 min
Bit rate : 44 b/s
Frame rate : 0.176 FPS
Count of elements : 1105
Stream size : 34.5 KiB (0%)
Language : Dutch
Default : No
Forced : No

Text #27
ID : 30
Format : UTF-8
Codec ID : S_TEXT/UTF8
Codec ID/Info : UTF-8 Plain Text
Duration : 1 h 44 min
Bit rate : 41 b/s
Frame rate : 0.188 FPS
Count of elements : 1180
Stream size : 32.0 KiB (0%)
Language : Polish
Default : No
Forced : No

Text #28
ID : 31
Format : UTF-8
Codec ID : S_TEXT/UTF8
Codec ID/Info : UTF-8 Plain Text
Duration : 1 h 44 min
Bit rate : 43 b/s
Frame rate : 0.186 FPS
Count of elements : 1168
Stream size : 33.8 KiB (0%)
Title : Brazilian
Language : Portuguese (BR)
Default : No
Forced : No

Text #29
ID : 32
Format : UTF-8
Codec ID : S_TEXT/UTF8
Codec ID/Info : UTF-8 Plain Text
Duration : 1 h 44 min
Bit rate : 44 b/s
Frame rate : 0.173 FPS
Count of elements : 1088
Stream size : 34.0 KiB (0%)
Language : Portuguese (PT)
Default : No
Forced : No

Text #30
ID : 33
Format : UTF-8
Codec ID : S_TEXT/UTF8
Codec ID/Info : UTF-8 Plain Text
Duration : 1 h 44 min
Bit rate : 41 b/s
Frame rate : 0.181 FPS
Count of elements : 1138
Stream size : 32.2 KiB (0%)
Language : Romanian
Default : No
Forced : No

Text #31
ID : 34
Format : UTF-8
Codec ID : S_TEXT/UTF8
Codec ID/Info : UTF-8 Plain Text
Duration : 1 h 44 min
Bit rate : 72 b/s
Frame rate : 0.189 FPS
Count of elements : 1191
Stream size : 55.3 KiB (0%)
Language : Russian
Default : No
Forced : No

Text #32
ID : 35
Format : UTF-8
Codec ID : S_TEXT/UTF8
Codec ID/Info : UTF-8 Plain Text
Duration : 1 h 44 min
Bit rate : 43 b/s
Frame rate : 0.178 FPS
Count of elements : 1117
Stream size : 33.3 KiB (0%)
Language : Swedish
Default : No
Forced : No

Text #33
ID : 36
Format : UTF-8
Codec ID : S_TEXT/UTF8
Codec ID/Info : UTF-8 Plain Text
Duration : 1 h 44 min
Bit rate : 103 b/s
Frame rate : 0.191 FPS
Count of elements : 1198
Stream size : 79.4 KiB (0%)
Language : Thai
Default : No
Forced : No

Text #34
ID : 37
Format : UTF-8
Codec ID : S_TEXT/UTF8
Codec ID/Info : UTF-8 Plain Text
Duration : 1 h 44 min
Bit rate : 44 b/s
Frame rate : 0.166 FPS
Count of elements : 1046
Stream size : 33.8 KiB (0%)
Language : Turkish
Default : No
Forced : No

Text #35
ID : 38
Format : UTF-8
Codec ID : S_TEXT/UTF8
Codec ID/Info : UTF-8 Plain Text
Duration : 1 h 44 min
Bit rate : 69 b/s
Frame rate : 0.190 FPS
Count of elements : 1196
Stream size : 53.6 KiB (0%)
Language : Ukrainian
Default : No
Forced : No

Text #36
ID : 39
Format : UTF-8
Codec ID : S_TEXT/UTF8
Codec ID/Info : UTF-8 Plain Text
Duration : 1 h 44 min
Bit rate : 59 b/s
Frame rate : 0.193 FPS
Count of elements : 1215
Stream size : 45.6 KiB (0%)
Language : Vietnamese
Default : No
Forced : No

Text #37
ID : 40
Format : UTF-8
Codec ID : S_TEXT/UTF8
Codec ID/Info : UTF-8 Plain Text
Duration : 1 h 44 min
Bit rate : 41 b/s
Frame rate : 0.210 FPS
Count of elements : 1319
Stream size : 32.2 KiB (0%)
Title : Simplified
Language : Chinese (Simplified)
Default : No
Forced : No

Text #38
ID : 41
Format : UTF-8
Codec ID : S_TEXT/UTF8
Codec ID/Info : UTF-8 Plain Text
Duration : 1 h 44 min
Bit rate : 36 b/s
Frame rate : 0.198 FPS
Count of elements : 1243
Stream size : 28.0 KiB (0%)
Title : Traditional
Language : Chinese (Traditional)
Default : No
Forced : No

[collapse]
Download Link(s)

Download

Direct download files get automatically deleted after a month or so. Posted on : 01/28/2024

[collapse]
Magnet Link

Magnet

Badland.Hunters.2024.1080p.NF.WEB-DL.DUAL.DDP5.1.Atmos.H.264-ChromeIsMyLife-4.79 GB

[collapse]

You may also like...

error: nah :p~