Baahubali 2: The Conclusion (2017)

Bãhubali 2: The Conclusion (original title)|Not Rated | 2h 47min | Action, Drama | 28 April 2017 (USA)

When Shiva, the son of Bahubali, learns about his heritage, he begins to look for answers. His story is juxtaposed with past events that unfolded in the Mahishmati Kingdom.

Watch trailer

Media information

General
Format : Matroska
Format version : Version 4
File size : 3.31 GiB
Duration : 2 h 46 min
Overall bit rate : 2 837 kb/s
Movie name : Baahubali.2.The.Conclusion.2017.2160p.10bit.BluRay.6CH.x265.HEVC

Video
ID : 1
Format : HEVC
Format/Info : High Efficiency Video Coding
Format profile : Main 10@L5@Main
Codec ID : V_MPEGH/ISO/HEVC
Duration : 2 h 46 min
Bit rate : 2 600 kb/s
Width : 3 840 pixels
Height : 1 600 pixels
Display aspect ratio : 2.40:1
Frame rate mode : Constant
Frame rate : 24.000 FPS
Color space : YUV
Chroma subsampling : 4:2:0
Bit depth : 10 bits
Bits/(Pixel*Frame) : 0.018
Stream size : 3.03 GiB (92%)
Default : Yes
Forced : No
Color range : Limited
Color primaries : BT.709
Transfer characteristics : BT.709
Matrix coefficients : BT.709

Audio
ID : 2
Format : AAC LC
Codec ID : A_AAC-2
Duration : 2 h 46 min
Bit rate : 222 kb/s
Channel(s) : 6 channels
Channel layout : C L R Ls Rs LFE
Sampling rate : 48.0 kHz
Frame rate : 46.875 FPS (1024 SPF)
Compression mode : Lossy
Delay relative to video : 8 s 829 ms
Stream size : 265 MiB (8%)
Language : Telugu
Default : Yes
Forced : No

Text
ID : 3
Format : PGS
Muxing mode : zlib
Codec ID : S_HDMV/PGS
Duration : 2 h 40 min
Bit rate : 23.5 kb/s
Count of elements : 2503
Stream size : 27.0 MiB (1%)
Language : English
Default : Yes
Forced : No

[collapse]
Download Link(s)

Part01 Part02

Direct download files get automatically deleted after a month or so. Posted on : 11/07/2020

[collapse]
Magnet Link

Magnet

Baahubali-2-The-Conclusion-2017-Telugu-4K-UltraHD-2160p-HEVC-10bits-SDR-DDS-5-1-27.6 GB

[collapse]

Media information

General
Format : Matroska
Format version : Version 4
File size : 2.17 GiB
Duration : 2 h 46 min
Overall bit rate : 1 861 kb/s
Movie name : Baahubali.2.The.Conclusion.2017.1080p.10bit.BluRay.2CH.x265.HEVC

Video
ID : 1
Format : HEVC
Format/Info : High Efficiency Video Coding
Format profile : Main 10@L4@Main
Codec ID : V_MPEGH/ISO/HEVC
Duration : 2 h 46 min
Bit rate : 1 700 kb/s
Width : 1 920 pixels
Height : 800 pixels
Display aspect ratio : 2.40:1
Frame rate mode : Constant
Frame rate : 24.000 FPS
Color space : YUV
Chroma subsampling : 4:2:0
Bit depth : 10 bits
Bits/(Pixel*Frame) : 0.046
Stream size : 1.98 GiB (91%)
Default : Yes
Forced : No
Color range : Limited
Color primaries : BT.709
Transfer characteristics : BT.709
Matrix coefficients : BT.709

Audio
ID : 2
Format : AAC LC
Codec ID : A_AAC-2
Duration : 2 h 46 min
Bit rate : 159 kb/s
Channel(s) : 2 channels
Channel layout : L R
Sampling rate : 48.0 kHz
Frame rate : 46.875 FPS (1024 SPF)
Compression mode : Lossy
Delay relative to video : -21 ms
Stream size : 190 MiB (9%)
Language : Hindi
Default : Yes
Forced : No

Text
ID : 3
Format : UTF-8
Codec ID : S_TEXT/UTF8
Codec ID/Info : UTF-8 Plain Text
Duration : 2 h 40 min
Bit rate : 42 b/s
Count of elements : 1531
Stream size : 50.0 KiB (0%)
Language : English
Default : Yes
Forced : No

[collapse]
Download Link(s)

Part01 Part02

Direct download files get automatically deleted after a month or so. Posted on : 11/03/2020

[collapse]
Magnet Link

Magnet

Baahubali-2-The-Conclusion-2017-HQ-1080p-BluRay-x264-Telugu-A-AAC-5-1-12.8 GB

[collapse]

Media information

General
Format : Matroska
Format version : Version 4
File size : 1.19 GiB
Duration : 2 h 46 min
Overall bit rate : 1 021 kb/s
Movie name : Baahubali.2.The.Conclusion.2017.720p.10bit.BluRay.2CH.x265.HEVC

Video
ID : 1
Format : HEVC
Format/Info : High Efficiency Video Coding
Format profile : Main [email protected]@Main
Codec ID : V_MPEGH/ISO/HEVC
Duration : 2 h 46 min
Bit rate : 860 kb/s
Width : 1 280 pixels
Height : 720 pixels
Display aspect ratio : 2.40:1
Frame rate mode : Constant
Frame rate : 24.000 FPS
Color space : YUV
Chroma subsampling : 4:2:0
Bit depth : 10 bits
Bits/(Pixel*Frame) : 0.039
Stream size : 1.00 GiB (84%)
Default : Yes
Forced : No
Color range : Limited
Color primaries : BT.709
Transfer characteristics : BT.709
Matrix coefficients : BT.709

Audio
ID : 2
Format : AAC LC
Codec ID : A_AAC-2
Duration : 2 h 46 min
Bit rate : 159 kb/s
Channel(s) : 2 channels
Channel layout : L R
Sampling rate : 48.0 kHz
Frame rate : 46.875 FPS (1024 SPF)
Compression mode : Lossy
Delay relative to video : -21 ms
Stream size : 190 MiB (16%)
Language : Hindi
Default : Yes
Forced : No

Text
ID : 3
Format : UTF-8
Codec ID : S_TEXT/UTF8
Codec ID/Info : UTF-8 Plain Text
Duration : 2 h 40 min
Bit rate : 42 b/s
Count of elements : 1531
Stream size : 50.0 KiB (0%)
Language : English
Default : Yes
Forced : No

[collapse]
Download Link(s)

Download

Direct download files get automatically deleted after a month or so. Posted on : 11/03/2020

[collapse]
Magnet Link

Magnet

Baahubali-2-The-Conclusion-2017-HQ-1080p-BluRay-x264-Telugu-A-AAC-5-1-12.8 GB

[collapse]

You may also like...

error: nah :p~