Attenborough and the Mammoth Graveyard (2021)

TV Special | 59min | Documentary

Sir David Attenborough joins Ben Garrod and a team of investigators at a mammoth graveyard near Swindon, to explore whether Neanderthals might have killed the ice age beasts.

Watch on YouTube

Media information

General
Format : Matroska
Format version : Version 4
File size : 566 MiB
Duration : 58 min 28 s
Overall bit rate : 1 353 kb/s
Movie name : Attenborough.and.the.Mammoth.Graveyard.2021.1080p.10bit.WEBRip.2CH.x265.HEVC

Video
ID : 1
Format : HEVC
Format/Info : High Efficiency Video Coding
Format profile : Main [email protected]@Main
Codec ID : V_MPEGH/ISO/HEVC
Duration : 58 min 28 s
Bit rate : 1 219 kb/s
Width : 1 920 pixels
Height : 1 080 pixels
Display aspect ratio : 16:9
Frame rate mode : Constant
Frame rate : 50.000 FPS
Color space : YUV
Chroma subsampling : 4:2:0 (Type 0)
Bit depth : 10 bits
Bits/(Pixel*Frame) : 0.012
Stream size : 510 MiB (90%)
Default : Yes
Forced : No
Color range : Limited
Color primaries : BT.709
Transfer characteristics : BT.709
Matrix coefficients : BT.709

Audio
ID : 2
Format : AAC LC
Codec ID : A_AAC-2
Duration : 58 min 28 s
Bit rate : 132 kb/s
Channel(s) : 2 channels
Channel layout : L R
Sampling rate : 48.0 kHz
Frame rate : 46.875 FPS (1024 SPF)
Compression mode : Lossy
Stream size : 54.5 MiB (10%)
Language : English
Default : Yes
Forced : No

Text #1
ID : 3
Format : UTF-8
Codec ID : S_TEXT/UTF8
Codec ID/Info : UTF-8 Plain Text
Duration : 57 min 47 s
Bit rate : 93 b/s
Count of elements : 991
Stream size : 39.6 KiB (0%)
Language : English
Default : No
Forced : No

Text #2
ID : 4
Format : UTF-8
Codec ID : S_TEXT/UTF8
Codec ID/Info : UTF-8 Plain Text
Duration : 57 min 47 s
Bit rate : 93 b/s
Count of elements : 996
Stream size : 39.7 KiB (0%)
Language : English
Default : Yes
Forced : No

[collapse]
Download Link(s)

Download

Direct download files get automatically deleted after a month or so. Posted on : 01/10/2022

[collapse]
Magnet Link

Magnet

Attenborough.and.the.Mammoth.Graveyard.2021.1080p.iP.WEBRip.AAC2.0.x264-NTb-2.32 GB

[collapse]

Media information

General
Format : Matroska
Format version : Version 4
File size : 314 MiB
Duration : 58 min 28 s
Overall bit rate : 752 kb/s
Movie name : Attenborough.and.the.Mammoth.Graveyard.2021.720p.10bit.WEBRip.2CH.x265.HEVC

Video
ID : 1
Format : HEVC
Format/Info : High Efficiency Video Coding
Format profile : Main [email protected]@Main
Codec ID : V_MPEGH/ISO/HEVC
Duration : 58 min 28 s
Bit rate : 618 kb/s
Width : 1 280 pixels
Height : 720 pixels
Display aspect ratio : 16:9
Frame rate mode : Constant
Frame rate : 50.000 FPS
Color space : YUV
Chroma subsampling : 4:2:0 (Type 0)
Bit depth : 10 bits
Bits/(Pixel*Frame) : 0.013
Stream size : 258 MiB (82%)
Default : Yes
Forced : No
Color range : Limited
Color primaries : BT.709
Transfer characteristics : BT.709
Matrix coefficients : BT.709

Audio
ID : 2
Format : AAC LC
Codec ID : A_AAC-2
Duration : 58 min 28 s
Bit rate : 132 kb/s
Channel(s) : 2 channels
Channel layout : L R
Sampling rate : 48.0 kHz
Frame rate : 46.875 FPS (1024 SPF)
Compression mode : Lossy
Stream size : 54.5 MiB (17%)
Language : English
Default : Yes
Forced : No

Text #1
ID : 3
Format : UTF-8
Codec ID : S_TEXT/UTF8
Codec ID/Info : UTF-8 Plain Text
Duration : 57 min 47 s
Bit rate : 93 b/s
Count of elements : 991
Stream size : 39.6 KiB (0%)
Language : English
Default : No
Forced : No

Text #2
ID : 4
Format : UTF-8
Codec ID : S_TEXT/UTF8
Codec ID/Info : UTF-8 Plain Text
Duration : 57 min 47 s
Bit rate : 93 b/s
Count of elements : 996
Stream size : 39.7 KiB (0%)
Language : English
Default : Yes
Forced : No

[collapse]
Download Link(s)

Download

Direct download files get automatically deleted after a month or so. Posted on : 01/10/2022

[collapse]
Magnet Link

Magnet

Attenborough.and.the.Mammoth.Graveyard.2021.1080p.iP.WEBRip.AAC2.0.x264-NTb-2.32 GB

[collapse]

You may also like...

error: nah :p~