Atlas (2024)

PG-13 | 1h 58min | Action, Adventure, Drama

In a bleak-sounding future, an A.I. soldier has determined that the only way to end war is to end humanity.

Watch trailer

Media information

General
Format : Matroska
Format version : Version 4
File size : 1.76 GiB
Duration : 2 h 0 min
Overall bit rate : 2 100 kb/s
Frame rate : 24.000 FPS
Movie name : Atlas.2024.1080p.10bit.WEBRip.6CH.x265.HEVC

Video
ID : 1
Format : HEVC
Format/Info : High Efficiency Video Coding
Format profile : Main 10@L4@Main
Codec ID : V_MPEGH/ISO/HEVC
Duration : 2 h 0 min
Bit rate : 1 888 kb/s
Width : 1 920 pixels
Height : 808 pixels
Display aspect ratio : 2.39:1
Frame rate mode : Constant
Frame rate : 24.000 FPS
Color space : YUV
Chroma subsampling : 4:2:0
Bit depth : 10 bits
Bits/(Pixel*Frame) : 0.051
Stream size : 1.58 GiB (90%)
Default : Yes
Forced : No

Audio
ID : 2
Format : AAC LC SBR
Commercial name : HE-AAC
Format settings : Explicit
Codec ID : A_AAC-2
Duration : 2 h 0 min
Bit rate : 204 kb/s
Channel(s) : 6 channels
Channel layout : C L R Ls Rs LFE
Sampling rate : 48.0 kHz
Frame rate : 23.438 FPS (2048 SPF)
Compression mode : Lossy
Delay relative to video : 23 ms
Stream size : 175 MiB (10%)
Language : English
Default : Yes
Forced : No

Text #1
ID : 3
Format : UTF-8
Codec ID : S_TEXT/UTF8
Codec ID/Info : UTF-8 Plain Text
Duration : 1 h 48 min
Bit rate : 65 b/s
Frame rate : 0.254 FPS
Count of elements : 1652
Stream size : 52.3 KiB (0%)
Title : English [SDH]
Language : English
Default : Yes
Forced : No

Text #2
ID : 4
Format : UTF-8
Codec ID : S_TEXT/UTF8
Codec ID/Info : UTF-8 Plain Text
Duration : 1 h 57 min
Bit rate : 83 b/s
Frame rate : 0.199 FPS
Count of elements : 1396
Stream size : 72.0 KiB (0%)
Title : Arabic
Language : Arabic
Default : No
Forced : No

Text #3
ID : 5
Format : UTF-8
Codec ID : S_TEXT/UTF8
Codec ID/Info : UTF-8 Plain Text
Duration : 1 h 57 min
Bit rate : 48 b/s
Frame rate : 0.186 FPS
Count of elements : 1306
Stream size : 41.4 KiB (0%)
Title : Basque
Language : Basque
Default : No
Forced : No

Text #4
ID : 6
Format : UTF-8
Codec ID : S_TEXT/UTF8
Codec ID/Info : UTF-8 Plain Text
Duration : 1 h 57 min
Bit rate : 47 b/s
Frame rate : 0.193 FPS
Count of elements : 1359
Stream size : 41.0 KiB (0%)
Title : Catalan
Language : Catalan
Default : No
Forced : No

Text #5
ID : 7
Format : UTF-8
Codec ID : S_TEXT/UTF8
Codec ID/Info : UTF-8 Plain Text
Duration : 1 h 57 min
Bit rate : 44 b/s
Frame rate : 0.194 FPS
Count of elements : 1365
Stream size : 38.5 KiB (0%)
Title : Chinese Simplified
Language : Chinese
Default : No
Forced : No

Text #6
ID : 8
Format : UTF-8
Codec ID : S_TEXT/UTF8
Codec ID/Info : UTF-8 Plain Text
Duration : 1 h 57 min
Bit rate : 39 b/s
Frame rate : 0.196 FPS
Count of elements : 1376
Stream size : 34.0 KiB (0%)
Title : Chinese Traditional
Language : Chinese
Default : No
Forced : No

Text #7
ID : 9
Format : UTF-8
Codec ID : S_TEXT/UTF8
Codec ID/Info : UTF-8 Plain Text
Duration : 1 h 57 min
Bit rate : 46 b/s
Frame rate : 0.187 FPS
Count of elements : 1312
Stream size : 39.5 KiB (0%)
Title : Croatian
Language : Croatian
Default : No
Forced : No

Text #8
ID : 10
Format : UTF-8
Codec ID : S_TEXT/UTF8
Codec ID/Info : UTF-8 Plain Text
Duration : 1 h 57 min
Bit rate : 47 b/s
Frame rate : 0.187 FPS
Count of elements : 1314
Stream size : 41.1 KiB (0%)
Title : Czech
Language : Czech
Default : No
Forced : No

Text #9
ID : 11
Format : UTF-8
Codec ID : S_TEXT/UTF8
Codec ID/Info : UTF-8 Plain Text
Duration : 1 h 48 min
Bit rate : 60 b/s
Frame rate : 0.247 FPS
Count of elements : 1609
Stream size : 47.8 KiB (0%)
Title : Czech [SDH]
Language : Czech
Default : No
Forced : No

Text #10
ID : 12
Format : UTF-8
Codec ID : S_TEXT/UTF8
Codec ID/Info : UTF-8 Plain Text
Duration : 1 h 57 min
Bit rate : 47 b/s
Frame rate : 0.179 FPS
Count of elements : 1256
Stream size : 41.2 KiB (0%)
Title : Danish
Language : Danish
Default : No
Forced : No

Text #11
ID : 13
Format : UTF-8
Codec ID : S_TEXT/UTF8
Codec ID/Info : UTF-8 Plain Text
Duration : 1 h 57 min
Bit rate : 40 b/s
Frame rate : 0.169 FPS
Count of elements : 1190
Stream size : 35.2 KiB (0%)
Title : Dutch
Language : Dutch
Default : No
Forced : No

Text #12
ID : 14
Format : UTF-8
Codec ID : S_TEXT/UTF8
Codec ID/Info : UTF-8 Plain Text
Duration : 1 h 57 min
Bit rate : 50 b/s
Frame rate : 0.183 FPS
Count of elements : 1290
Stream size : 43.7 KiB (0%)
Title : European Spanish
Language : Spanish
Default : No
Forced : No

Text #13
ID : 15
Format : UTF-8
Codec ID : S_TEXT/UTF8
Codec ID/Info : UTF-8 Plain Text
Duration : 1 h 57 min
Bit rate : 68 b/s
Frame rate : 0.266 FPS
Count of elements : 1871
Stream size : 58.9 KiB (0%)
Title : European Spanish [SDH]
Language : Spanish
Default : No
Forced : No

Text #14
ID : 16
Format : UTF-8
Codec ID : S_TEXT/UTF8
Codec ID/Info : UTF-8 Plain Text
Duration : 1 h 57 min
Bit rate : 52 b/s
Frame rate : 0.183 FPS
Count of elements : 1287
Stream size : 44.8 KiB (0%)
Title : Filipino
Language : Filipino
Default : No
Forced : No

Text #15
ID : 17
Format : UTF-8
Codec ID : S_TEXT/UTF8
Codec ID/Info : UTF-8 Plain Text
Duration : 1 h 57 min
Bit rate : 48 b/s
Frame rate : 0.181 FPS
Count of elements : 1272
Stream size : 41.2 KiB (0%)
Title : Finnish
Language : Finnish
Default : No
Forced : No

Text #16
ID : 18
Format : UTF-8
Codec ID : S_TEXT/UTF8
Codec ID/Info : UTF-8 Plain Text
Duration : 1 h 57 min
Bit rate : 46 b/s
Frame rate : 0.180 FPS
Count of elements : 1265
Stream size : 40.1 KiB (0%)
Title : French
Language : French
Default : No
Forced : No

Text #17
ID : 19
Format : UTF-8
Codec ID : S_TEXT/UTF8
Codec ID/Info : UTF-8 Plain Text
Duration : 1 h 48 min
Bit rate : 78 b/s
Frame rate : 0.282 FPS
Count of elements : 1839
Stream size : 62.7 KiB (0%)
Title : French [SDH]
Language : French
Default : No
Forced : No

Text #18
ID : 20
Format : UTF-8
Codec ID : S_TEXT/UTF8
Codec ID/Info : UTF-8 Plain Text
Duration : 1 h 57 min
Bit rate : 47 b/s
Frame rate : 0.193 FPS
Count of elements : 1360
Stream size : 41.1 KiB (0%)
Title : Galician
Language : Galician
Default : No
Forced : No

Text #19
ID : 21
Format : UTF-8
Codec ID : S_TEXT/UTF8
Codec ID/Info : UTF-8 Plain Text
Duration : 1 h 57 min
Bit rate : 52 b/s
Frame rate : 0.183 FPS
Count of elements : 1284
Stream size : 45.1 KiB (0%)
Title : German
Language : German
Default : No
Forced : No

Text #20
ID : 22
Format : UTF-8
Codec ID : S_TEXT/UTF8
Codec ID/Info : UTF-8 Plain Text
Duration : 1 h 48 min
Bit rate : 90 b/s
Frame rate : 0.201 FPS
Count of elements : 1302
Stream size : 71.7 KiB (0%)
Title : Greek
Language : Greek
Default : No
Forced : No

Text #21
ID : 23
Format : UTF-8
Codec ID : S_TEXT/UTF8
Codec ID/Info : UTF-8 Plain Text
Duration : 1 h 48 min
Bit rate : 83 b/s
Frame rate : 0.198 FPS
Count of elements : 1290
Stream size : 66.4 KiB (0%)
Title : Hebrew
Language : Hebrew
Default : No
Forced : No

Text #22
ID : 24
Format : UTF-8
Codec ID : S_TEXT/UTF8
Codec ID/Info : UTF-8 Plain Text
Duration : 1 h 57 min
Bit rate : 50 b/s
Frame rate : 0.177 FPS
Count of elements : 1247
Stream size : 43.8 KiB (0%)
Title : Hungarian
Language : Hungarian
Default : No
Forced : No

Text #23
ID : 25
Format : UTF-8
Codec ID : S_TEXT/UTF8
Codec ID/Info : UTF-8 Plain Text
Duration : 1 h 48 min
Bit rate : 65 b/s
Frame rate : 0.241 FPS
Count of elements : 1573
Stream size : 52.1 KiB (0%)
Title : Hungarian [SDH]
Language : Hungarian
Default : No
Forced : No

Text #24
ID : 26
Format : UTF-8
Codec ID : S_TEXT/UTF8
Codec ID/Info : UTF-8 Plain Text
Duration : 1 h 57 min
Bit rate : 47 b/s
Frame rate : 0.188 FPS
Count of elements : 1322
Stream size : 41.1 KiB (0%)
Title : Indonesian
Language : Indonesian
Default : No
Forced : No

Text #25
ID : 27
Format : UTF-8
Codec ID : S_TEXT/UTF8
Codec ID/Info : UTF-8 Plain Text
Duration : 1 h 48 min
Bit rate : 65 b/s
Frame rate : 0.261 FPS
Count of elements : 1699
Stream size : 51.9 KiB (0%)
Title : Indonesian [SDH]
Language : Indonesian
Default : No
Forced : No

Text #26
ID : 28
Format : UTF-8
Codec ID : S_TEXT/UTF8
Codec ID/Info : UTF-8 Plain Text
Duration : 1 h 57 min
Bit rate : 48 b/s
Frame rate : 0.182 FPS
Count of elements : 1281
Stream size : 41.9 KiB (0%)
Title : Italian
Language : Italian
Default : No
Forced : No

Text #27
ID : 29
Format : UTF-8
Codec ID : S_TEXT/UTF8
Codec ID/Info : UTF-8 Plain Text
Duration : 1 h 57 min
Bit rate : 61 b/s
Frame rate : 0.226 FPS
Count of elements : 1591
Stream size : 53.0 KiB (0%)
Title : Italian [SDH]
Language : Italian
Default : No
Forced : No

Text #28
ID : 30
Format : UTF-8
Codec ID : S_TEXT/UTF8
Codec ID/Info : UTF-8 Plain Text
Duration : 1 h 57 min
Bit rate : 45 b/s
Frame rate : 0.204 FPS
Count of elements : 1436
Stream size : 39.4 KiB (0%)
Title : Japanese
Language : Japanese
Default : No
Forced : No

Text #29
ID : 31
Format : UTF-8
Codec ID : S_TEXT/UTF8
Codec ID/Info : UTF-8 Plain Text
Duration : 1 h 57 min
Bit rate : 57 b/s
Frame rate : 0.203 FPS
Count of elements : 1430
Stream size : 49.4 KiB (0%)
Title : Korean
Language : Korean
Default : No
Forced : No

Text #30
ID : 32
Format : UTF-8
Codec ID : S_TEXT/UTF8
Codec ID/Info : UTF-8 Plain Text
Duration : 1 h 57 min
Bit rate : 48 b/s
Frame rate : 0.187 FPS
Count of elements : 1318
Stream size : 41.6 KiB (0%)
Title : Malay
Language : Malay
Default : No
Forced : No

Text #31
ID : 33
Format : UTF-8
Codec ID : S_TEXT/UTF8
Codec ID/Info : UTF-8 Plain Text
Duration : 1 h 57 min
Bit rate : 45 b/s
Frame rate : 0.165 FPS
Count of elements : 1162
Stream size : 39.4 KiB (0%)
Title : Norwegian Bokmål
Language : Norwegian Bokmal
Default : No
Forced : No

Text #32
ID : 34
Format : UTF-8
Codec ID : S_TEXT/UTF8
Codec ID/Info : UTF-8 Plain Text
Duration : 1 h 57 min
Bit rate : 46 b/s
Frame rate : 0.182 FPS
Count of elements : 1283
Stream size : 39.9 KiB (0%)
Title : Polish
Language : Polish
Default : No
Forced : No

Text #33
ID : 35
Format : UTF-8
Codec ID : S_TEXT/UTF8
Codec ID/Info : UTF-8 Plain Text
Duration : 1 h 57 min
Bit rate : 57 b/s
Frame rate : 0.231 FPS
Count of elements : 1628
Stream size : 49.2 KiB (0%)
Title : Polish [SDH]
Language : Polish
Default : No
Forced : No

Text #34
ID : 36
Format : UTF-8
Codec ID : S_TEXT/UTF8
Codec ID/Info : UTF-8 Plain Text
Duration : 1 h 57 min
Bit rate : 51 b/s
Frame rate : 0.185 FPS
Count of elements : 1304
Stream size : 44.1 KiB (0%)
Title : Portuguese
Language : Portuguese
Default : No
Forced : No

Text #35
ID : 37
Format : UTF-8
Codec ID : S_TEXT/UTF8
Codec ID/Info : UTF-8 Plain Text
Duration : 1 h 57 min
Bit rate : 49 b/s
Frame rate : 0.191 FPS
Count of elements : 1340
Stream size : 42.3 KiB (0%)
Title : Portuguese Brazilian
Language : Portuguese
Default : No
Forced : No

Text #36
ID : 38
Format : UTF-8
Codec ID : S_TEXT/UTF8
Codec ID/Info : UTF-8 Plain Text
Duration : 1 h 48 min
Bit rate : 74 b/s
Frame rate : 0.278 FPS
Count of elements : 1813
Stream size : 58.8 KiB (0%)
Title : Portuguese Brazilian [SDH]
Language : Portuguese
Default : No
Forced : No

Text #37
ID : 39
Format : UTF-8
Codec ID : S_TEXT/UTF8
Codec ID/Info : UTF-8 Plain Text
Duration : 1 h 57 min
Bit rate : 49 b/s
Frame rate : 0.186 FPS
Count of elements : 1311
Stream size : 42.6 KiB (0%)
Title : Romanian
Language : Romanian
Default : No
Forced : No

Text #38
ID : 40
Format : UTF-8
Codec ID : S_TEXT/UTF8
Codec ID/Info : UTF-8 Plain Text
Duration : 1 h 57 min
Bit rate : 82 b/s
Frame rate : 0.188 FPS
Count of elements : 1319
Stream size : 70.6 KiB (0%)
Title : Russian
Language : Russian
Default : No
Forced : No

Text #39
ID : 41
Format : UTF-8
Codec ID : S_TEXT/UTF8
Codec ID/Info : UTF-8 Plain Text
Duration : 1 h 57 min
Bit rate : 51 b/s
Frame rate : 0.189 FPS
Count of elements : 1332
Stream size : 44.4 KiB (0%)
Title : Spanish
Language : Spanish
Default : No
Forced : No

Text #40
ID : 42
Format : UTF-8
Codec ID : S_TEXT/UTF8
Codec ID/Info : UTF-8 Plain Text
Duration : 1 h 48 min
Bit rate : 66 b/s
Frame rate : 0.261 FPS
Count of elements : 1699
Stream size : 53.2 KiB (0%)
Title : Spanish [SDH]
Language : Spanish
Default : No
Forced : No

Text #41
ID : 43
Format : UTF-8
Codec ID : S_TEXT/UTF8
Codec ID/Info : UTF-8 Plain Text
Duration : 1 h 57 min
Bit rate : 49 b/s
Frame rate : 0.156 FPS
Count of elements : 1099
Stream size : 42.3 KiB (0%)
Title : Swedish
Language : Swedish
Default : No
Forced : No

Text #42
ID : 44
Format : UTF-8
Codec ID : S_TEXT/UTF8
Codec ID/Info : UTF-8 Plain Text
Duration : 1 h 57 min
Bit rate : 121 b/s
Frame rate : 0.194 FPS
Count of elements : 1365
Stream size : 104 KiB (0%)
Title : Thai
Language : Thai
Default : No
Forced : No

Text #43
ID : 45
Format : UTF-8
Codec ID : S_TEXT/UTF8
Codec ID/Info : UTF-8 Plain Text
Duration : 1 h 48 min
Bit rate : 167 b/s
Frame rate : 0.263 FPS
Count of elements : 1716
Stream size : 133 KiB (0%)
Title : Thai [SDH]
Language : Thai
Default : No
Forced : No

Text #44
ID : 46
Format : UTF-8
Codec ID : S_TEXT/UTF8
Codec ID/Info : UTF-8 Plain Text
Duration : 1 h 57 min
Bit rate : 49 b/s
Frame rate : 0.187 FPS
Count of elements : 1314
Stream size : 42.5 KiB (0%)
Title : Turkish
Language : Turkish
Default : No
Forced : No

Text #45
ID : 47
Format : UTF-8
Codec ID : S_TEXT/UTF8
Codec ID/Info : UTF-8 Plain Text
Duration : 1 h 57 min
Bit rate : 58 b/s
Frame rate : 0.231 FPS
Count of elements : 1624
Stream size : 50.6 KiB (0%)
Title : Turkish [SDH]
Language : Turkish
Default : No
Forced : No

Text #46
ID : 48
Format : UTF-8
Codec ID : S_TEXT/UTF8
Codec ID/Info : UTF-8 Plain Text
Duration : 1 h 57 min
Bit rate : 80 b/s
Frame rate : 0.190 FPS
Count of elements : 1333
Stream size : 68.8 KiB (0%)
Title : Ukrainian
Language : Ukrainian
Default : No
Forced : No

Text #47
ID : 49
Format : UTF-8
Codec ID : S_TEXT/UTF8
Codec ID/Info : UTF-8 Plain Text
Duration : 1 h 57 min
Bit rate : 62 b/s
Frame rate : 0.190 FPS
Count of elements : 1339
Stream size : 53.7 KiB (0%)
Title : Vietnamese
Language : Vietnamese
Default : No
Forced : No

[collapse]
Download Link(s)

Download

Direct download files get automatically deleted after a month or so. Posted on : 01/06/2019

[collapse]

Media information

General
Format : Matroska
Format version : Version 4
File size : 993 MiB
Duration : 2 h 0 min
Overall bit rate : 1 156 kb/s
Frame rate : 24.000 FPS
Movie name : Atlas.2024.720p.10bit.WEBRip.6CH.x265.HEVC

Video
ID : 1
Format : HEVC
Format/Info : High Efficiency Video Coding
Format profile : Main [email protected]@Main
Codec ID : V_MPEGH/ISO/HEVC
Duration : 2 h 0 min
Bit rate : 944 kb/s
Width : 1 280 pixels
Height : 536 pixels
Display aspect ratio : 2.39:1
Frame rate mode : Constant
Frame rate : 24.000 FPS
Color space : YUV
Chroma subsampling : 4:2:0
Bit depth : 10 bits
Bits/(Pixel*Frame) : 0.057
Stream size : 811 MiB (82%)
Default : Yes
Forced : No

Audio
ID : 2
Format : AAC LC SBR
Commercial name : HE-AAC
Format settings : Explicit
Codec ID : A_AAC-2
Duration : 2 h 0 min
Bit rate : 204 kb/s
Channel(s) : 6 channels
Channel layout : C L R Ls Rs LFE
Sampling rate : 48.0 kHz
Frame rate : 23.438 FPS (2048 SPF)
Compression mode : Lossy
Delay relative to video : 23 ms
Stream size : 175 MiB (18%)
Language : English
Default : Yes
Forced : No

Text #1
ID : 3
Format : UTF-8
Codec ID : S_TEXT/UTF8
Codec ID/Info : UTF-8 Plain Text
Duration : 1 h 48 min
Bit rate : 65 b/s
Frame rate : 0.254 FPS
Count of elements : 1652
Stream size : 52.3 KiB (0%)
Title : English [SDH]
Language : English
Default : Yes
Forced : No

Text #2
ID : 4
Format : UTF-8
Codec ID : S_TEXT/UTF8
Codec ID/Info : UTF-8 Plain Text
Duration : 1 h 57 min
Bit rate : 83 b/s
Frame rate : 0.199 FPS
Count of elements : 1396
Stream size : 72.0 KiB (0%)
Title : Arabic
Language : Arabic
Default : No
Forced : No

Text #3
ID : 5
Format : UTF-8
Codec ID : S_TEXT/UTF8
Codec ID/Info : UTF-8 Plain Text
Duration : 1 h 57 min
Bit rate : 48 b/s
Frame rate : 0.186 FPS
Count of elements : 1306
Stream size : 41.4 KiB (0%)
Title : Basque
Language : Basque
Default : No
Forced : No

Text #4
ID : 6
Format : UTF-8
Codec ID : S_TEXT/UTF8
Codec ID/Info : UTF-8 Plain Text
Duration : 1 h 57 min
Bit rate : 47 b/s
Frame rate : 0.193 FPS
Count of elements : 1359
Stream size : 41.0 KiB (0%)
Title : Catalan
Language : Catalan
Default : No
Forced : No

Text #5
ID : 7
Format : UTF-8
Codec ID : S_TEXT/UTF8
Codec ID/Info : UTF-8 Plain Text
Duration : 1 h 57 min
Bit rate : 44 b/s
Frame rate : 0.194 FPS
Count of elements : 1365
Stream size : 38.5 KiB (0%)
Title : Chinese Simplified
Language : Chinese
Default : No
Forced : No

Text #6
ID : 8
Format : UTF-8
Codec ID : S_TEXT/UTF8
Codec ID/Info : UTF-8 Plain Text
Duration : 1 h 57 min
Bit rate : 39 b/s
Frame rate : 0.196 FPS
Count of elements : 1376
Stream size : 34.0 KiB (0%)
Title : Chinese Traditional
Language : Chinese
Default : No
Forced : No

Text #7
ID : 9
Format : UTF-8
Codec ID : S_TEXT/UTF8
Codec ID/Info : UTF-8 Plain Text
Duration : 1 h 57 min
Bit rate : 46 b/s
Frame rate : 0.187 FPS
Count of elements : 1312
Stream size : 39.5 KiB (0%)
Title : Croatian
Language : Croatian
Default : No
Forced : No

Text #8
ID : 10
Format : UTF-8
Codec ID : S_TEXT/UTF8
Codec ID/Info : UTF-8 Plain Text
Duration : 1 h 57 min
Bit rate : 47 b/s
Frame rate : 0.187 FPS
Count of elements : 1314
Stream size : 41.1 KiB (0%)
Title : Czech
Language : Czech
Default : No
Forced : No

Text #9
ID : 11
Format : UTF-8
Codec ID : S_TEXT/UTF8
Codec ID/Info : UTF-8 Plain Text
Duration : 1 h 48 min
Bit rate : 60 b/s
Frame rate : 0.247 FPS
Count of elements : 1609
Stream size : 47.8 KiB (0%)
Title : Czech [SDH]
Language : Czech
Default : No
Forced : No

Text #10
ID : 12
Format : UTF-8
Codec ID : S_TEXT/UTF8
Codec ID/Info : UTF-8 Plain Text
Duration : 1 h 57 min
Bit rate : 47 b/s
Frame rate : 0.179 FPS
Count of elements : 1256
Stream size : 41.2 KiB (0%)
Title : Danish
Language : Danish
Default : No
Forced : No

Text #11
ID : 13
Format : UTF-8
Codec ID : S_TEXT/UTF8
Codec ID/Info : UTF-8 Plain Text
Duration : 1 h 57 min
Bit rate : 40 b/s
Frame rate : 0.169 FPS
Count of elements : 1190
Stream size : 35.2 KiB (0%)
Title : Dutch
Language : Dutch
Default : No
Forced : No

Text #12
ID : 14
Format : UTF-8
Codec ID : S_TEXT/UTF8
Codec ID/Info : UTF-8 Plain Text
Duration : 1 h 57 min
Bit rate : 50 b/s
Frame rate : 0.183 FPS
Count of elements : 1290
Stream size : 43.7 KiB (0%)
Title : European Spanish
Language : Spanish
Default : No
Forced : No

Text #13
ID : 15
Format : UTF-8
Codec ID : S_TEXT/UTF8
Codec ID/Info : UTF-8 Plain Text
Duration : 1 h 57 min
Bit rate : 68 b/s
Frame rate : 0.266 FPS
Count of elements : 1871
Stream size : 58.9 KiB (0%)
Title : European Spanish [SDH]
Language : Spanish
Default : No
Forced : No

Text #14
ID : 16
Format : UTF-8
Codec ID : S_TEXT/UTF8
Codec ID/Info : UTF-8 Plain Text
Duration : 1 h 57 min
Bit rate : 52 b/s
Frame rate : 0.183 FPS
Count of elements : 1287
Stream size : 44.8 KiB (0%)
Title : Filipino
Language : Filipino
Default : No
Forced : No

Text #15
ID : 17
Format : UTF-8
Codec ID : S_TEXT/UTF8
Codec ID/Info : UTF-8 Plain Text
Duration : 1 h 57 min
Bit rate : 48 b/s
Frame rate : 0.181 FPS
Count of elements : 1272
Stream size : 41.2 KiB (0%)
Title : Finnish
Language : Finnish
Default : No
Forced : No

Text #16
ID : 18
Format : UTF-8
Codec ID : S_TEXT/UTF8
Codec ID/Info : UTF-8 Plain Text
Duration : 1 h 57 min
Bit rate : 46 b/s
Frame rate : 0.180 FPS
Count of elements : 1265
Stream size : 40.1 KiB (0%)
Title : French
Language : French
Default : No
Forced : No

Text #17
ID : 19
Format : UTF-8
Codec ID : S_TEXT/UTF8
Codec ID/Info : UTF-8 Plain Text
Duration : 1 h 48 min
Bit rate : 78 b/s
Frame rate : 0.282 FPS
Count of elements : 1839
Stream size : 62.7 KiB (0%)
Title : French [SDH]
Language : French
Default : No
Forced : No

Text #18
ID : 20
Format : UTF-8
Codec ID : S_TEXT/UTF8
Codec ID/Info : UTF-8 Plain Text
Duration : 1 h 57 min
Bit rate : 47 b/s
Frame rate : 0.193 FPS
Count of elements : 1360
Stream size : 41.1 KiB (0%)
Title : Galician
Language : Galician
Default : No
Forced : No

Text #19
ID : 21
Format : UTF-8
Codec ID : S_TEXT/UTF8
Codec ID/Info : UTF-8 Plain Text
Duration : 1 h 57 min
Bit rate : 52 b/s
Frame rate : 0.183 FPS
Count of elements : 1284
Stream size : 45.1 KiB (0%)
Title : German
Language : German
Default : No
Forced : No

Text #20
ID : 22
Format : UTF-8
Codec ID : S_TEXT/UTF8
Codec ID/Info : UTF-8 Plain Text
Duration : 1 h 48 min
Bit rate : 90 b/s
Frame rate : 0.201 FPS
Count of elements : 1302
Stream size : 71.7 KiB (0%)
Title : Greek
Language : Greek
Default : No
Forced : No

Text #21
ID : 23
Format : UTF-8
Codec ID : S_TEXT/UTF8
Codec ID/Info : UTF-8 Plain Text
Duration : 1 h 48 min
Bit rate : 83 b/s
Frame rate : 0.198 FPS
Count of elements : 1290
Stream size : 66.4 KiB (0%)
Title : Hebrew
Language : Hebrew
Default : No
Forced : No

Text #22
ID : 24
Format : UTF-8
Codec ID : S_TEXT/UTF8
Codec ID/Info : UTF-8 Plain Text
Duration : 1 h 57 min
Bit rate : 50 b/s
Frame rate : 0.177 FPS
Count of elements : 1247
Stream size : 43.8 KiB (0%)
Title : Hungarian
Language : Hungarian
Default : No
Forced : No

Text #23
ID : 25
Format : UTF-8
Codec ID : S_TEXT/UTF8
Codec ID/Info : UTF-8 Plain Text
Duration : 1 h 48 min
Bit rate : 65 b/s
Frame rate : 0.241 FPS
Count of elements : 1573
Stream size : 52.1 KiB (0%)
Title : Hungarian [SDH]
Language : Hungarian
Default : No
Forced : No

Text #24
ID : 26
Format : UTF-8
Codec ID : S_TEXT/UTF8
Codec ID/Info : UTF-8 Plain Text
Duration : 1 h 57 min
Bit rate : 47 b/s
Frame rate : 0.188 FPS
Count of elements : 1322
Stream size : 41.1 KiB (0%)
Title : Indonesian
Language : Indonesian
Default : No
Forced : No

Text #25
ID : 27
Format : UTF-8
Codec ID : S_TEXT/UTF8
Codec ID/Info : UTF-8 Plain Text
Duration : 1 h 48 min
Bit rate : 65 b/s
Frame rate : 0.261 FPS
Count of elements : 1699
Stream size : 51.9 KiB (0%)
Title : Indonesian [SDH]
Language : Indonesian
Default : No
Forced : No

Text #26
ID : 28
Format : UTF-8
Codec ID : S_TEXT/UTF8
Codec ID/Info : UTF-8 Plain Text
Duration : 1 h 57 min
Bit rate : 48 b/s
Frame rate : 0.182 FPS
Count of elements : 1281
Stream size : 41.9 KiB (0%)
Title : Italian
Language : Italian
Default : No
Forced : No

Text #27
ID : 29
Format : UTF-8
Codec ID : S_TEXT/UTF8
Codec ID/Info : UTF-8 Plain Text
Duration : 1 h 57 min
Bit rate : 61 b/s
Frame rate : 0.226 FPS
Count of elements : 1591
Stream size : 53.0 KiB (0%)
Title : Italian [SDH]
Language : Italian
Default : No
Forced : No

Text #28
ID : 30
Format : UTF-8
Codec ID : S_TEXT/UTF8
Codec ID/Info : UTF-8 Plain Text
Duration : 1 h 57 min
Bit rate : 45 b/s
Frame rate : 0.204 FPS
Count of elements : 1436
Stream size : 39.4 KiB (0%)
Title : Japanese
Language : Japanese
Default : No
Forced : No

Text #29
ID : 31
Format : UTF-8
Codec ID : S_TEXT/UTF8
Codec ID/Info : UTF-8 Plain Text
Duration : 1 h 57 min
Bit rate : 57 b/s
Frame rate : 0.203 FPS
Count of elements : 1430
Stream size : 49.4 KiB (0%)
Title : Korean
Language : Korean
Default : No
Forced : No

Text #30
ID : 32
Format : UTF-8
Codec ID : S_TEXT/UTF8
Codec ID/Info : UTF-8 Plain Text
Duration : 1 h 57 min
Bit rate : 48 b/s
Frame rate : 0.187 FPS
Count of elements : 1318
Stream size : 41.6 KiB (0%)
Title : Malay
Language : Malay
Default : No
Forced : No

Text #31
ID : 33
Format : UTF-8
Codec ID : S_TEXT/UTF8
Codec ID/Info : UTF-8 Plain Text
Duration : 1 h 57 min
Bit rate : 45 b/s
Frame rate : 0.165 FPS
Count of elements : 1162
Stream size : 39.4 KiB (0%)
Title : Norwegian Bokmål
Language : Norwegian Bokmal
Default : No
Forced : No

Text #32
ID : 34
Format : UTF-8
Codec ID : S_TEXT/UTF8
Codec ID/Info : UTF-8 Plain Text
Duration : 1 h 57 min
Bit rate : 46 b/s
Frame rate : 0.182 FPS
Count of elements : 1283
Stream size : 39.9 KiB (0%)
Title : Polish
Language : Polish
Default : No
Forced : No

Text #33
ID : 35
Format : UTF-8
Codec ID : S_TEXT/UTF8
Codec ID/Info : UTF-8 Plain Text
Duration : 1 h 57 min
Bit rate : 57 b/s
Frame rate : 0.231 FPS
Count of elements : 1628
Stream size : 49.2 KiB (0%)
Title : Polish [SDH]
Language : Polish
Default : No
Forced : No

Text #34
ID : 36
Format : UTF-8
Codec ID : S_TEXT/UTF8
Codec ID/Info : UTF-8 Plain Text
Duration : 1 h 57 min
Bit rate : 51 b/s
Frame rate : 0.185 FPS
Count of elements : 1304
Stream size : 44.1 KiB (0%)
Title : Portuguese
Language : Portuguese
Default : No
Forced : No

Text #35
ID : 37
Format : UTF-8
Codec ID : S_TEXT/UTF8
Codec ID/Info : UTF-8 Plain Text
Duration : 1 h 57 min
Bit rate : 49 b/s
Frame rate : 0.191 FPS
Count of elements : 1340
Stream size : 42.3 KiB (0%)
Title : Portuguese Brazilian
Language : Portuguese
Default : No
Forced : No

Text #36
ID : 38
Format : UTF-8
Codec ID : S_TEXT/UTF8
Codec ID/Info : UTF-8 Plain Text
Duration : 1 h 48 min
Bit rate : 74 b/s
Frame rate : 0.278 FPS
Count of elements : 1813
Stream size : 58.8 KiB (0%)
Title : Portuguese Brazilian [SDH]
Language : Portuguese
Default : No
Forced : No

Text #37
ID : 39
Format : UTF-8
Codec ID : S_TEXT/UTF8
Codec ID/Info : UTF-8 Plain Text
Duration : 1 h 57 min
Bit rate : 49 b/s
Frame rate : 0.186 FPS
Count of elements : 1311
Stream size : 42.6 KiB (0%)
Title : Romanian
Language : Romanian
Default : No
Forced : No

Text #38
ID : 40
Format : UTF-8
Codec ID : S_TEXT/UTF8
Codec ID/Info : UTF-8 Plain Text
Duration : 1 h 57 min
Bit rate : 82 b/s
Frame rate : 0.188 FPS
Count of elements : 1319
Stream size : 70.6 KiB (0%)
Title : Russian
Language : Russian
Default : No
Forced : No

Text #39
ID : 41
Format : UTF-8
Codec ID : S_TEXT/UTF8
Codec ID/Info : UTF-8 Plain Text
Duration : 1 h 57 min
Bit rate : 51 b/s
Frame rate : 0.189 FPS
Count of elements : 1332
Stream size : 44.4 KiB (0%)
Title : Spanish
Language : Spanish
Default : No
Forced : No

Text #40
ID : 42
Format : UTF-8
Codec ID : S_TEXT/UTF8
Codec ID/Info : UTF-8 Plain Text
Duration : 1 h 48 min
Bit rate : 66 b/s
Frame rate : 0.261 FPS
Count of elements : 1699
Stream size : 53.2 KiB (0%)
Title : Spanish [SDH]
Language : Spanish
Default : No
Forced : No

Text #41
ID : 43
Format : UTF-8
Codec ID : S_TEXT/UTF8
Codec ID/Info : UTF-8 Plain Text
Duration : 1 h 57 min
Bit rate : 49 b/s
Frame rate : 0.156 FPS
Count of elements : 1099
Stream size : 42.3 KiB (0%)
Title : Swedish
Language : Swedish
Default : No
Forced : No

Text #42
ID : 44
Format : UTF-8
Codec ID : S_TEXT/UTF8
Codec ID/Info : UTF-8 Plain Text
Duration : 1 h 57 min
Bit rate : 121 b/s
Frame rate : 0.194 FPS
Count of elements : 1365
Stream size : 104 KiB (0%)
Title : Thai
Language : Thai
Default : No
Forced : No

Text #43
ID : 45
Format : UTF-8
Codec ID : S_TEXT/UTF8
Codec ID/Info : UTF-8 Plain Text
Duration : 1 h 48 min
Bit rate : 167 b/s
Frame rate : 0.263 FPS
Count of elements : 1716
Stream size : 133 KiB (0%)
Title : Thai [SDH]
Language : Thai
Default : No
Forced : No

Text #44
ID : 46
Format : UTF-8
Codec ID : S_TEXT/UTF8
Codec ID/Info : UTF-8 Plain Text
Duration : 1 h 57 min
Bit rate : 49 b/s
Frame rate : 0.187 FPS
Count of elements : 1314
Stream size : 42.5 KiB (0%)
Title : Turkish
Language : Turkish
Default : No
Forced : No

Text #45
ID : 47
Format : UTF-8
Codec ID : S_TEXT/UTF8
Codec ID/Info : UTF-8 Plain Text
Duration : 1 h 57 min
Bit rate : 58 b/s
Frame rate : 0.231 FPS
Count of elements : 1624
Stream size : 50.6 KiB (0%)
Title : Turkish [SDH]
Language : Turkish
Default : No
Forced : No

Text #46
ID : 48
Format : UTF-8
Codec ID : S_TEXT/UTF8
Codec ID/Info : UTF-8 Plain Text
Duration : 1 h 57 min
Bit rate : 80 b/s
Frame rate : 0.190 FPS
Count of elements : 1333
Stream size : 68.8 KiB (0%)
Title : Ukrainian
Language : Ukrainian
Default : No
Forced : No

Text #47
ID : 49
Format : UTF-8
Codec ID : S_TEXT/UTF8
Codec ID/Info : UTF-8 Plain Text
Duration : 1 h 57 min
Bit rate : 62 b/s
Frame rate : 0.190 FPS
Count of elements : 1339
Stream size : 53.7 KiB (0%)
Title : Vietnamese
Language : Vietnamese
Default : No
Forced : No

[collapse]
Download Link(s)

Download

Direct download files get automatically deleted after a month or so. Posted on : 01/06/2019

[collapse]

Magnet Link

Magnet

Atlas.2024.1080p.WEB.H264-QueenOfDivorce.TGx-4.54 GB

[collapse]

You may also like...

error: nah :p~