Assassination Classroom (2015)

Ansatsu ky├┤shitsu (original title)|M | 1h 50min | Action, Adventure, Comedy | 21 March 2015 (Japan)

The Earth’s moon is suddenly 70% smaller and permanently crescent shaped by a devastating and unknown force. For the students of E Class, Kunugigaoka Junior High School, the being responsible is known, as their teacher. The strange and very supportive entity has given the Japanese government a challenge to save the Earth from destruction. It wants to be the teacher of the class with the lowest expectations for success, in anything. The students, armed with special weapons that only harm their teacher, must find a way to kill him before the end of the school year. If not, summer break will be canceled by the end of the world.

Watch trailer

Media information

General
Format : Matroska
Format version : Version 4
File size : 1.49 GiB
Duration : 1 h 49 min
Overall bit rate : 1 947 kb/s
Movie name : Assassination.Classroom.2015.JAPANESE.1080p.10bit.BluRay.6CH.x265.HEVC

Video
ID : 1
Format : HEVC
Format/Info : High Efficiency Video Coding
Format profile : Main 10@L4@Main
Codec ID : V_MPEGH/ISO/HEVC
Duration : 1 h 49 min
Bit rate : 1 721 kb/s
Width : 1 920 pixels
Height : 802 pixels
Display aspect ratio : 2.40:1
Frame rate mode : Constant
Frame rate : 23.976 (24000/1001) FPS
Color space : YUV
Chroma subsampling : 4:2:0
Bit depth : 10 bits
Bits/(Pixel*Frame) : 0.047
Stream size : 1.31 GiB (88%)
Default : Yes
Forced : No
Color range : Limited
Color primaries : BT.709
Transfer characteristics : BT.709
Matrix coefficients : BT.709

Audio
ID : 2
Format : AAC LC
Codec ID : A_AAC-2
Duration : 1 h 49 min
Bit rate : 224 kb/s
Channel(s) : 6 channels
Channel layout : C L R Ls Rs LFE
Sampling rate : 48.0 kHz
Frame rate : 46.875 FPS (1024 SPF)
Compression mode : Lossy
Delay relative to video : -21 ms
Stream size : 175 MiB (12%)
Language : Japanese
Default : Yes
Forced : No

Text
ID : 3
Format : UTF-8
Codec ID : S_TEXT/UTF8
Codec ID/Info : UTF-8 Plain Text
Duration : 1 h 48 min
Bit rate : 55 b/s
Count of elements : 1330
Stream size : 44.5 KiB (0%)
Language : English
Default : Yes
Forced : No

[collapse]
Download Link(s)

Download

Direct download files get automatically deleted after a month or so. Posted on : 11/12/2020

[collapse]
Magnet Link

Magnet

Assassination.Classroom.2015.JAPANESE.1080p.BluRay.x264.DTS-iKiW-10.15 GB

[collapse]

Media information

General
Format : Matroska
Format version : Version 4
File size : 779 MiB
Duration : 1 h 49 min
Overall bit rate : 995 kb/s
Movie name : Assassination.Classroom.2015.JAPANESE.720p.10bit.BluRay.6CH.x265.HEVC

Video
ID : 1
Format : HEVC
Format/Info : High Efficiency Video Coding
Format profile : Main [email protected]@Main
Codec ID : V_MPEGH/ISO/HEVC
Duration : 1 h 49 min
Bit rate : 801 kb/s
Width : 1 280 pixels
Height : 536 pixels
Display aspect ratio : 2.40:1
Frame rate mode : Constant
Frame rate : 23.976 (24000/1001) FPS
Color space : YUV
Chroma subsampling : 4:2:0
Bit depth : 10 bits
Bits/(Pixel*Frame) : 0.049
Stream size : 627 MiB (80%)
Default : Yes
Forced : No
Color range : Limited
Color primaries : BT.709
Transfer characteristics : BT.709
Matrix coefficients : BT.709

Audio
ID : 2
Format : AAC LC
Codec ID : A_AAC-2
Duration : 1 h 49 min
Bit rate : 192 kb/s
Channel(s) : 6 channels
Channel layout : C L R Ls Rs LFE
Sampling rate : 48.0 kHz
Frame rate : 46.875 FPS (1024 SPF)
Compression mode : Lossy
Delay relative to video : -21 ms
Stream size : 150 MiB (19%)
Language : Japanese
Default : Yes
Forced : No

Text
ID : 3
Format : UTF-8
Codec ID : S_TEXT/UTF8
Codec ID/Info : UTF-8 Plain Text
Duration : 1 h 48 min
Bit rate : 55 b/s
Count of elements : 1330
Stream size : 44.5 KiB (0%)
Language : English
Default : Yes
Forced : No

[collapse]
Download Link(s)

Download

Direct download files get automatically deleted after a month or so. Posted on : 11/12/2020

[collapse]
Magnet Link

Magnet

Assassination.Classroom.2015.JAPANESE.1080p.BluRay.x264.DTS-iKiW-10.15 GB

[collapse]

You may also like...

error: nah :p~