American Pie (1999)

R | 1h 35min | Comedy

Four teenage boys enter a pact to lose their virginity by prom night.

Watch trailer

Media information

General
Format : Matroska
Format version : Version 4
File size : 1.47 GiB
Duration : 1 h 35 min
Overall bit rate : 2 194 kb/s
Movie name : American.Pie.1999.UNRATED.1080p.10bit.BluRay.6CH.x265.HEVC

Video
ID : 1
Format : HEVC
Format/Info : High Efficiency Video Coding
Format profile : Main [email protected]@Main
Codec ID : V_MPEGH/ISO/HEVC
Duration : 1 h 35 min
Bit rate : 1 963 kb/s
Width : 1 920 pixels
Height : 1 040 pixels
Display aspect ratio : 1.85:1
Frame rate mode : Constant
Frame rate : 23.976 (24000/1001) FPS
Color space : YUV
Chroma subsampling : 4:2:0 (Type 0)
Bit depth : 10 bits
Bits/(Pixel*Frame) : 0.041
Stream size : 1.31 GiB (89%)
Default : Yes
Forced : No
Color range : Limited

Audio
ID : 2
Format : AAC LC
Codec ID : A_AAC-2
Duration : 1 h 35 min
Bit rate : 192 kb/s
Channel(s) : 6 channels
Channel layout : L R C Cb Lb Rb
Sampling rate : 48.0 kHz
Frame rate : 46.875 FPS (1024 SPF)
Compression mode : Lossy
Stream size : 132 MiB (9%)
Language : English
Default : Yes
Forced : No

Text #1
ID : 3
Format : PGS
Muxing mode : zlib
Codec ID : S_HDMV/PGS
Duration : 1 h 35 min
Bit rate : 51.2 kb/s
Frame rate : 0.585 FPS
Count of elements : 3339
Stream size : 34.8 MiB (2%)
Language : English
Default : Yes
Forced : No

Text #2
ID : 4
Format : PGS
Muxing mode : zlib
Codec ID : S_HDMV/PGS
Duration : 1 h 35 min
Bit rate : 31.5 kb/s
Frame rate : 0.424 FPS
Count of elements : 2420
Stream size : 21.4 MiB (1%)
Language : Spanish
Default : No
Forced : No

Text #3
ID : 5
Format : PGS
Muxing mode : zlib
Codec ID : S_HDMV/PGS
Duration : 1 h 35 min
Bit rate : 39.1 kb/s
Frame rate : 0.445 FPS
Count of elements : 2540
Stream size : 26.6 MiB (2%)
Language : French
Default : No
Forced : No

[collapse]
Download Link(s)

Download

Direct download files get automatically deleted after a month or so. Posted on : 01/24/2023

[collapse]
Magnet Link

Magnet

American.Pie.1999.UNRATED.1080p.BluRay.x264.DTS-FGT-11.39 GB

[collapse]

Media information

General
Format : Matroska
Format version : Version 4
File size : 751 MiB
Duration : 1 h 35 min
Overall bit rate : 1 098 kb/s
Movie name : American.Pie.1999.UNRATED.720p.10bit.BluRay.6CH.x265.HEVC

Video
ID : 1
Format : HEVC
Format/Info : High Efficiency Video Coding
Format profile : Main [email protected]@Main
Codec ID : V_MPEGH/ISO/HEVC
Duration : 1 h 35 min
Bit rate : 868 kb/s
Width : 1 280 pixels
Height : 696 pixels
Display aspect ratio : 1.85:1
Frame rate mode : Constant
Frame rate : 23.976 (24000/1001) FPS
Color space : YUV
Chroma subsampling : 4:2:0 (Type 0)
Bit depth : 10 bits
Bits/(Pixel*Frame) : 0.041
Stream size : 593 MiB (79%)
Default : Yes
Forced : No
Color range : Limited

Audio
ID : 2
Format : AAC LC
Codec ID : A_AAC-2
Duration : 1 h 35 min
Bit rate : 192 kb/s
Channel(s) : 6 channels
Channel layout : L R C Cb Lb Rb
Sampling rate : 48.0 kHz
Frame rate : 46.875 FPS (1024 SPF)
Compression mode : Lossy
Stream size : 132 MiB (18%)
Language : English
Default : Yes
Forced : No

Text #1
ID : 3
Format : PGS
Muxing mode : zlib
Codec ID : S_HDMV/PGS
Duration : 1 h 35 min
Bit rate : 51.2 kb/s
Frame rate : 0.585 FPS
Count of elements : 3339
Stream size : 34.8 MiB (5%)
Language : English
Default : Yes
Forced : No

Text #2
ID : 4
Format : PGS
Muxing mode : zlib
Codec ID : S_HDMV/PGS
Duration : 1 h 35 min
Bit rate : 31.5 kb/s
Frame rate : 0.424 FPS
Count of elements : 2420
Stream size : 21.4 MiB (3%)
Language : Spanish
Default : No
Forced : No

Text #3
ID : 5
Format : PGS
Muxing mode : zlib
Codec ID : S_HDMV/PGS
Duration : 1 h 35 min
Bit rate : 39.1 kb/s
Frame rate : 0.445 FPS
Count of elements : 2540
Stream size : 26.6 MiB (4%)
Language : French
Default : No
Forced : No

[collapse]
Download Link(s)

Download

Direct download files get automatically deleted after a month or so. Posted on : 01/24/2023

[collapse]
Magnet Link

Magnet

American.Pie.1999.UNRATED.1080p.BluRay.x264.DTS-FGT-11.39 GB

[collapse]

You may also like...

error: nah :p~