Above the Shadows (2019)

1h 51min | Fantasy | 31 May 2019 (USA)

A young woman who has faded to the point of becoming invisible must find her way back with the help of the one man who can see her.

Watch trailer

Media information

General
Format : Matroska
Format version : Version 4
File size : 950 MiB
Duration : 1 h 51 min
Overall bit rate : 1 197 kb/s
Movie name : Above the Shadows.2019.720p.WEB-DL.2CH.x264.AVC
Encoded date : UTC 2019-07-19 09:32:59
Writing application : mkvmerge v35.0.0 (‘All The Love In The World’) 32-bit
Writing library : libebml v1.3.9 + libmatroska v1.5.2

Video
ID : 1
Format : AVC
Format/Info : Advanced Video Codec
Format profile : [email protected]
Format settings : CABAC / 5 Ref Frames
Format settings, CABAC : Yes
Format settings, Reference frames : 5 frames
Codec ID : V_MPEG4/ISO/AVC
Duration : 1 h 51 min
Bit rate : 1 132 kb/s
Width : 1 280 pixels
Height : 536 pixels
Display aspect ratio : 2.40:1
Frame rate mode : Constant
Frame rate : 23.976 (24000/1001) FPS
Color space : YUV
Chroma subsampling : 4:2:0
Bit depth : 8 bits
Scan type : Progressive
Bits/(Pixel*Frame) : 0.069
Stream size : 898 MiB (94%)
Default : Yes
Forced : No

Audio
ID : 2
Format : AAC LC SBR
Commercial name : HE-AAC
Format settings : Explicit
Codec ID : A_AAC-2
Duration : 1 h 51 min
Bit rate : 64.0 kb/s
Channel(s) : 2 channels
Channel layout : L R
Sampling rate : 48.0 kHz
Frame rate : 23.438 FPS (2048 SPF)
Compression mode : Lossy
Delay relative to video : 43 ms
Stream size : 50.8 MiB (5%)
Language : English
Default : Yes
Forced : No

Text
ID : 3
Format : UTF-8
Codec ID : S_TEXT/UTF8
Codec ID/Info : UTF-8 Plain Text
Duration : 1 h 50 min
Bit rate : 47 b/s
Count of elements : 1156
Stream size : 38.6 KiB (0%)
Language : English
Default : Yes
Forced : No

[collapse]
Download Link(s)

Download

Direct download files get automatically deleted after a month or so. Posted on : 07/19/2019

[collapse]
Magnet Link

Magnet

Above.the.Shadows.2019.1080p.AMZN.WEBRip.DDP5.1.x264-NTG- 5.59 GB

[collapse]

You may also like...

error: nah :p~