76th Golden Globe Awards (2019)

TV-14 | 3h | Talk-Show | TV Special 6 January 2019

An awards ceremony hosted by Sandra Oh and Andy Samberg that celebrates the best performances in television and film.

Watch trailer

Media information

General
Format : Matroska
Format version : Version 4
File size : 936 MiB
Duration : 2 h 25 min
Overall bit rate : 903 kb/s
Movie name : The.76th.Annual.Golden.Globe.Awards.2019.720p.WEBRip.2CH.x265.HEVC
Encoded date : UTC 2019-01-08 06:35:07
Writing application : mkvmerge v30.1.0 (‘Forever And More’) 32-bit
Writing library : libebml v1.3.6 + libmatroska v1.4.9

Video
ID : 1
Format : HEVC
Format/Info : High Efficiency Video Coding
Format profile : [email protected]@Main
Codec ID : V_MPEGH/ISO/HEVC
Duration : 2 h 25 min
Bit rate : 805 kb/s
Width : 1 280 pixels
Height : 720 pixels
Display aspect ratio : 16:9
Frame rate mode : Constant
Frame rate : 29.970 (30000/1001) FPS
Color space : YUV
Chroma subsampling : 4:2:0
Bit depth : 8 bits
Bits/(Pixel*Frame) : 0.029
Stream size : 834 MiB (89%)
Default : Yes
Forced : No

Audio
ID : 2
Format : AAC LC
Codec ID : A_AAC-2
Duration : 2 h 25 min
Bit rate : 96.0 kb/s
Channel(s) : 2 channels
Channel layout : L R
Sampling rate : 44.1 kHz
Frame rate : 43.066 FPS (1024 SPF)
Compression mode : Lossy
Stream size : 99.5 MiB (11%)
Language : English
Default : Yes
Forced : No

[collapse]
Download Link(s)

Download

Direct download files get automatically deleted after a month or so. Posted on : 01/08/2019

[collapse]
Magnet Link

Magnet

The.76th.Annual.Golden.Globe.Awards.2019.1080p.WEB.x264-TBS-4.29 GB

[collapse]

You may also like...

error: nah :p~