2012 (2009)

PG-13 | 2h 38min | Action, Adventure, Sci-Fi | 13 November 2009 (USA)

A frustrated writer struggles to keep his family alive when a series of global catastrophes threatens to annihilate mankind.

Watch trailer

Media information

General
Format : Matroska
Format version : Version 4
File size : 3.51 GiB
Duration : 2 h 37 min
Overall bit rate : 3 186 kb/s
Movie name : 2012.2009.2160p.10bit.HDR.BluRay.8CH.x265.HEVC

Video
ID : 1
Format : HEVC
Format/Info : High Efficiency Video Coding
Format profile : Main [email protected]@Main
Codec ID : V_MPEGH/ISO/HEVC
Duration : 2 h 37 min
Bit rate : 2 863 kb/s
Width : 3 840 pixels
Height : 1 600 pixels
Display aspect ratio : 2.40:1
Frame rate mode : Constant
Frame rate : 23.976 (24000/1001) FPS
Color space : YUV
Chroma subsampling : 4:2:0
Bit depth : 10 bits
Bits/(Pixel*Frame) : 0.019
Stream size : 3.16 GiB (90%)
Default : Yes
Forced : No
Color range : Limited
Color primaries : BT.2020
Transfer characteristics : PQ
Matrix coefficients : BT.2020 non-constant

Audio
ID : 2
Format : AAC LC
Codec ID : A_AAC-2
Duration : 2 h 37 min
Bit rate : 320 kb/s
Channel(s) : 8 channels
Channel layout : C L R Ls Rs Lw Rw LFE
Sampling rate : 48.0 kHz
Frame rate : 46.875 FPS (1024 SPF)
Compression mode : Lossy
Delay relative to video : -21 ms
Stream size : 362 MiB (10%)
Language : English
Default : Yes
Forced : No

Text
ID : 3
Format : UTF-8
Codec ID : S_TEXT/UTF8
Codec ID/Info : UTF-8 Plain Text
Duration : 2 h 26 min
Bit rate : 61 b/s
Count of elements : 1890
Stream size : 65.5 KiB (0%)
Language : English
Default : Yes
Forced : No

[collapse]
Download Link(s)

Part01 Part02

Direct download files get automatically deleted after a month or so. Posted on : 03/18/2021

[collapse]
Magnet Link

Magnet

2012.2009.2160p.UHD.BluRay.x265.10bit.HDR.TrueHD.7.1.Atmos-SURCODE-36.58 GB

[collapse]

Media information

General
Format : Matroska
Format version : Version 4
File size : 2.42 GiB
Duration : 2 h 37 min
Overall bit rate : 2 192 kb/s
Movie name : 2012.2009.1080p.10bit.BluRay.8CH.x265.HEVC

Video
ID : 1
Format : HEVC
Format/Info : High Efficiency Video Coding
Format profile : Main [email protected]@Main
Codec ID : V_MPEGH/ISO/HEVC
Duration : 2 h 37 min
Bit rate : 1 869 kb/s
Width : 1 920 pixels
Height : 800 pixels
Display aspect ratio : 2.40:1
Frame rate mode : Constant
Frame rate : 23.976 (24000/1001) FPS
Color space : YUV
Chroma subsampling : 4:2:0
Bit depth : 10 bits
Bits/(Pixel*Frame) : 0.051
Stream size : 2.06 GiB (85%)
Default : Yes
Forced : No
Color range : Limited
Color primaries : BT.2020
Transfer characteristics : PQ
Matrix coefficients : BT.2020 non-constant

Audio
ID : 2
Format : AAC LC
Codec ID : A_AAC-2
Duration : 2 h 37 min
Bit rate : 320 kb/s
Channel(s) : 8 channels
Channel layout : C L R Ls Rs Lw Rw LFE
Sampling rate : 48.0 kHz
Frame rate : 46.875 FPS (1024 SPF)
Compression mode : Lossy
Delay relative to video : -21 ms
Stream size : 362 MiB (15%)
Language : English
Default : Yes
Forced : No

Text
ID : 3
Format : UTF-8
Codec ID : S_TEXT/UTF8
Codec ID/Info : UTF-8 Plain Text
Duration : 2 h 26 min
Bit rate : 61 b/s
Count of elements : 1890
Stream size : 65.5 KiB (0%)
Language : English
Default : Yes
Forced : No

[collapse]
Download Link(s)

Part01 Part02

Direct download files get automatically deleted after a month or so. Posted on : 03/18/2021

[collapse]
Magnet Link

Magnet

2012.2009.2160p.UHD.BluRay.x265.10bit.HDR.TrueHD.7.1.Atmos-SURCODE-36.58 GB

[collapse]

Media information

General
Format : Matroska
Format version : Version 4
File size : 1.12 GiB
Duration : 2 h 37 min
Overall bit rate : 1 018 kb/s
Movie name : 2012.2009.720p.10bit.BluRay.6CH.x265.HEVC

Video
ID : 1
Format : HEVC
Format/Info : High Efficiency Video Coding
Format profile : Main [email protected]@Main
Codec ID : V_MPEGH/ISO/HEVC
Duration : 2 h 37 min
Bit rate : 824 kb/s
Width : 1 280 pixels
Height : 534 pixels
Display aspect ratio : 2.40:1
Frame rate mode : Constant
Frame rate : 23.976 (24000/1001) FPS
Color space : YUV
Chroma subsampling : 4:2:0
Bit depth : 10 bits
Bits/(Pixel*Frame) : 0.050
Stream size : 930 MiB (81%)
Default : Yes
Forced : No
Color range : Limited
Color primaries : BT.2020
Transfer characteristics : PQ
Matrix coefficients : BT.2020 non-constant

Audio
ID : 2
Format : AAC LC
Codec ID : A_AAC-2
Duration : 2 h 37 min
Bit rate : 192 kb/s
Channel(s) : 6 channels
Channel layout : C L R Ls Rs LFE
Sampling rate : 48.0 kHz
Frame rate : 46.875 FPS (1024 SPF)
Compression mode : Lossy
Delay relative to video : -21 ms
Stream size : 217 MiB (19%)
Language : English
Default : Yes
Forced : No

Text
ID : 3
Format : UTF-8
Codec ID : S_TEXT/UTF8
Codec ID/Info : UTF-8 Plain Text
Duration : 2 h 26 min
Bit rate : 61 b/s
Count of elements : 1890
Stream size : 65.5 KiB (0%)
Language : English
Default : Yes
Forced : No

[collapse]
Download Link(s)

Download

Direct download files get automatically deleted after a month or so. Posted on : 03/18/2021

[collapse]
Magnet Link

Magnet

2012.2009.2160p.UHD.BluRay.x265.10bit.HDR.TrueHD.7.1.Atmos-SURCODE-36.58 GB

[collapse]

You may also like...

error: nah :p~