2001: A Space Odyssey (1968)

G | 2h 29min | Adventure , Sci-Fi | 12 May 1968 (UK)

A space-opera spanning the dawn of man to humanity reaching the stars, 2001: A Space Odyssey tells the story of the Black Monolith, humanity’s evolution and the rise of A.I.’s ultimate supercomputer HAL 9000.

Watch trailer

Media information

General
Format : Matroska
Format version : Version 4
File size : 2.92 GiB
Duration : 2 h 28 min
Overall bit rate : 2 807 kb/s
Movie name : 2001.A.Space.Odyssey.1968.REMASTERED.1080p.10bit.BluRay.6CH.x265.HEVC

Video
ID : 1
Format : HEVC
Format/Info : High Efficiency Video Coding
Format profile : Main 10@L4@Main
Codec ID : V_MPEGH/ISO/HEVC
Duration : 2 h 28 min
Bit rate : 2 251 kb/s
Width : 1 920 pixels
Height : 872 pixels
Display aspect ratio : 2.2:1
Frame rate mode : Constant
Frame rate : 23.976 (24000/1001) FPS
Color space : YUV
Chroma subsampling : 4:2:0 (Type 0)
Bit depth : 10 bits
Bits/(Pixel*Frame) : 0.056
Stream size : 2.34 GiB (80%)
Default : Yes
Forced : No
Color range : Limited

Audio
ID : 2
Format : AAC LC
Codec ID : A_AAC-2
Duration : 2 h 28 min
Bit rate : 384 kb/s
Channel(s) : 6 channels
Channel layout : L R C Cb Lb Rb
Sampling rate : 48.0 kHz
Frame rate : 46.875 FPS (1024 SPF)
Compression mode : Lossy
Delay relative to video : -21 ms
Stream size : 410 MiB (14%)
Language : English
Default : Yes
Forced : No

Text #1
ID : 3
Format : UTF-8
Codec ID : S_TEXT/UTF8
Codec ID/Info : UTF-8 Plain Text
Duration : 1 h 31 min
Bit rate : 40 b/s
Count of elements : 641
Stream size : 26.8 KiB (0%)
Language : English
Default : No
Forced : No

Text #2
ID : 4
Format : UTF-8
Codec ID : S_TEXT/UTF8
Codec ID/Info : UTF-8 Plain Text
Duration : 2 h 17 min
Bit rate : 28 b/s
Count of elements : 667
Stream size : 28.3 KiB (0%)
Title : SDH
Language : English
Default : Yes
Forced : No

Text #3
ID : 5
Format : PGS
Muxing mode : zlib
Codec ID : S_HDMV/PGS
Duration : 2 h 17 min
Bit rate : 15.1 kb/s
Count of elements : 1334
Stream size : 14.9 MiB (1%)
Language : English
Default : No
Forced : No

Text #4
ID : 6
Format : PGS
Muxing mode : zlib
Codec ID : S_HDMV/PGS
Duration : 2 h 20 min
Bit rate : 12.0 kb/s
Count of elements : 1264
Stream size : 12.0 MiB (1%)
Language : French
Default : No
Forced : No

Text #5
ID : 7
Format : PGS
Muxing mode : zlib
Codec ID : S_HDMV/PGS
Duration : 2 h 20 min
Bit rate : 16.3 kb/s
Count of elements : 1316
Stream size : 16.4 MiB (1%)
Language : German
Default : No
Forced : No

Text #6
ID : 8
Format : PGS
Muxing mode : zlib
Codec ID : S_HDMV/PGS
Duration : 2 h 20 min
Bit rate : 15.1 kb/s
Count of elements : 1342
Stream size : 15.2 MiB (1%)
Language : Italian
Default : No
Forced : No

Text #7
ID : 9
Format : PGS
Muxing mode : zlib
Codec ID : S_HDMV/PGS
Duration : 2 h 20 min
Bit rate : 13.4 kb/s
Count of elements : 1288
Stream size : 13.4 MiB (1%)
Language : Spanish
Default : No
Forced : No

Text #8
ID : 10
Format : PGS
Muxing mode : zlib
Codec ID : S_HDMV/PGS
Duration : 2 h 19 min
Bit rate : 11.0 kb/s
Count of elements : 900
Stream size : 10.9 MiB (1%)
Language : Dutch
Default : No
Forced : No

Text #9
ID : 11
Format : PGS
Muxing mode : zlib
Codec ID : S_HDMV/PGS
Duration : 2 h 20 min
Bit rate : 12.1 kb/s
Count of elements : 1350
Stream size : 12.2 MiB (1%)
Language : Chinese
Default : No
Forced : No

Text #10
ID : 12
Format : PGS
Muxing mode : zlib
Codec ID : S_HDMV/PGS
Duration : 2 h 20 min
Bit rate : 13.0 kb/s
Count of elements : 1326
Stream size : 13.0 MiB (1%)
Language : Chinese
Default : No
Forced : No

Text #11
ID : 13
Format : PGS
Muxing mode : zlib
Codec ID : S_HDMV/PGS
Duration : 2 h 20 min
Bit rate : 10.3 kb/s
Count of elements : 1328
Stream size : 10.3 MiB (1%)
Language : Korean
Default : No
Forced : No

Text #12
ID : 14
Format : PGS
Muxing mode : zlib
Codec ID : S_HDMV/PGS
Duration : 2 h 20 min
Bit rate : 12.1 kb/s
Count of elements : 1272
Stream size : 12.1 MiB (1%)
Language : Spanish
Default : No
Forced : No

Text #13
ID : 15
Format : PGS
Muxing mode : zlib
Codec ID : S_HDMV/PGS
Duration : 2 h 20 min
Bit rate : 13.5 kb/s
Count of elements : 1310
Stream size : 13.5 MiB (1%)
Language : Portuguese
Default : No
Forced : No

Text #14
ID : 16
Format : PGS
Muxing mode : zlib
Codec ID : S_HDMV/PGS
Duration : 2 h 20 min
Bit rate : 7 350 b/s
Count of elements : 1280
Stream size : 7.38 MiB (0%)
Language : Arabic
Default : No
Forced : No

Text #15
ID : 17
Format : PGS
Muxing mode : zlib
Codec ID : S_HDMV/PGS
Duration : 2 h 20 min
Bit rate : 13.1 kb/s
Count of elements : 1290
Stream size : 13.1 MiB (1%)
Language : Croatian
Default : No
Forced : No

Text #16
ID : 18
Format : PGS
Muxing mode : zlib
Codec ID : S_HDMV/PGS
Duration : 2 h 20 min
Bit rate : 11.9 kb/s
Count of elements : 1326
Stream size : 11.9 MiB (1%)
Language : Czech
Default : No
Forced : No

Text #17
ID : 19
Format : PGS
Muxing mode : zlib
Codec ID : S_HDMV/PGS
Duration : 2 h 20 min
Bit rate : 10.1 kb/s
Count of elements : 774
Stream size : 10.1 MiB (1%)
Language : Danish
Default : No
Forced : No

Text #18
ID : 20
Format : PGS
Muxing mode : zlib
Codec ID : S_HDMV/PGS
Duration : 2 h 20 min
Bit rate : 9 768 b/s
Count of elements : 750
Stream size : 9.80 MiB (1%)
Language : Finnish
Default : No
Forced : No

Text #19
ID : 21
Format : PGS
Muxing mode : zlib
Codec ID : S_HDMV/PGS
Duration : 2 h 20 min
Bit rate : 11.8 kb/s
Count of elements : 1192
Stream size : 11.8 MiB (1%)
Language : Greek
Default : No
Forced : No

Text #20
ID : 22
Format : PGS
Muxing mode : zlib
Codec ID : S_HDMV/PGS
Duration : 2 h 20 min
Bit rate : 8 357 b/s
Count of elements : 1248
Stream size : 8.38 MiB (1%)
Language : Hebrew
Default : No
Forced : No

Text #21
ID : 23
Format : PGS
Muxing mode : zlib
Codec ID : S_HDMV/PGS
Duration : 2 h 20 min
Bit rate : 13.0 kb/s
Count of elements : 1328
Stream size : 13.0 MiB (1%)
Language : Hungarian
Default : No
Forced : No

Text #22
ID : 24
Format : PGS
Muxing mode : zlib
Codec ID : S_HDMV/PGS
Duration : 2 h 19 min
Bit rate : 13.3 kb/s
Count of elements : 1288
Stream size : 13.2 MiB (1%)
Language : Icelandic
Default : No
Forced : No

Text #23
ID : 25
Format : PGS
Muxing mode : zlib
Codec ID : S_HDMV/PGS
Duration : 2 h 20 min
Bit rate : 9 972 b/s
Count of elements : 884
Stream size : 10.0 MiB (1%)
Language : Norwegian
Default : No
Forced : No

Text #24
ID : 26
Format : PGS
Muxing mode : zlib
Codec ID : S_HDMV/PGS
Duration : 2 h 20 min
Bit rate : 10.9 kb/s
Count of elements : 1284
Stream size : 10.9 MiB (1%)
Language : Polish
Default : No
Forced : No

Text #25
ID : 27
Format : PGS
Muxing mode : zlib
Codec ID : S_HDMV/PGS
Duration : 2 h 20 min
Bit rate : 14.6 kb/s
Count of elements : 1292
Stream size : 14.6 MiB (1%)
Language : Portuguese
Default : No
Forced : No

Text #26
ID : 28
Format : PGS
Muxing mode : zlib
Codec ID : S_HDMV/PGS
Duration : 2 h 20 min
Bit rate : 11.4 kb/s
Count of elements : 1280
Stream size : 11.4 MiB (1%)
Language : Romanian
Default : No
Forced : No

Text #27
ID : 29
Format : PGS
Muxing mode : zlib
Codec ID : S_HDMV/PGS
Duration : 2 h 20 min
Bit rate : 14.5 kb/s
Count of elements : 1304
Stream size : 14.5 MiB (1%)
Language : Russian
Default : No
Forced : No

Text #28
ID : 30
Format : PGS
Muxing mode : zlib
Codec ID : S_HDMV/PGS
Duration : 2 h 20 min
Bit rate : 9 079 b/s
Count of elements : 760
Stream size : 9.11 MiB (1%)
Language : Swedish
Default : No
Forced : No

Text #29
ID : 31
Format : PGS
Muxing mode : zlib
Codec ID : S_HDMV/PGS
Duration : 2 h 19 min
Bit rate : 13.4 kb/s
Count of elements : 1328
Stream size : 13.4 MiB (1%)
Language : Thai
Default : No
Forced : No

Text #30
ID : 32
Format : PGS
Muxing mode : zlib
Codec ID : S_HDMV/PGS
Duration : 2 h 19 min
Bit rate : 13.2 kb/s
Count of elements : 1288
Stream size : 13.2 MiB (1%)
Language : Turkish
Default : No
Forced : No

Text #31
ID : 33
Format : PGS
Muxing mode : zlib
Codec ID : S_HDMV/PGS
Duration : 2 h 24 min
Bit rate : 35.1 kb/s
Count of elements : 3293
Stream size : 36.3 MiB (2%)
Language : Chinese
Default : No
Forced : No

[collapse]
Download Link(s)

Download

Direct download files get automatically deleted after a month or so. Posted on : 04/06/2022

[collapse]
Magnet Link

Magnet

2001.A.Space.Odyssey.1968.REMASTERED.1080p.BluRay.x264.DTS-HD.MA.5.1-FGT-11.82 GB

[collapse]

Media information

General
Format : Matroska
Format version : Version 4
Overall bit rate : 1 527 kb/s
Movie name : 2001.A.Space.Odyssey.1968.REMASTERED.720p.10bit.BluRay.6CH.x265.HEVC

Video
ID : 1
Format : HEVC
Format/Info : High Efficiency Video Coding
Format profile : Main [email protected]@Main
Codec ID : V_MPEGH/ISO/HEVC
Duration : 2 h 28 min
Bit rate : 1 068 kb/s
Width : 1 280 pixels
Height : 584 pixels
Display aspect ratio : 2.2:1
Frame rate mode : Constant
Frame rate : 23.976 (24000/1001) FPS
Color space : YUV
Chroma subsampling : 4:2:0 (Type 0)
Bit depth : 10 bits
Bits/(Pixel*Frame) : 0.060
Stream size : 1.11 GiB (70%)
Default : Yes
Forced : No
Color range : Limited

Audio
ID : 2
Format : AAC LC
Codec ID : A_AAC-2
Duration : 2 h 28 min
Bit rate : 288 kb/s
Channel(s) : 6 channels
Channel layout : L R C Cb Lb Rb
Sampling rate : 48.0 kHz
Frame rate : 46.875 FPS (1024 SPF)
Compression mode : Lossy
Delay relative to video : -21 ms
Stream size : 307 MiB (19%)
Language : English
Default : Yes
Forced : No

Text #1
ID : 3
Format : UTF-8
Codec ID : S_TEXT/UTF8
Codec ID/Info : UTF-8 Plain Text
Duration : 1 h 31 min
Bit rate : 40 b/s
Count of elements : 641
Stream size : 26.8 KiB (0%)
Language : English
Default : No
Forced : No

Text #2
ID : 4
Format : UTF-8
Codec ID : S_TEXT/UTF8
Codec ID/Info : UTF-8 Plain Text
Duration : 2 h 17 min
Bit rate : 28 b/s
Count of elements : 667
Stream size : 28.3 KiB (0%)
Title : SDH
Language : English
Default : Yes
Forced : No

Text #3
ID : 5
Format : PGS
Muxing mode : zlib
Codec ID : S_HDMV/PGS
Duration : 2 h 17 min
Bit rate : 15.1 kb/s
Count of elements : 1334
Stream size : 14.9 MiB (1%)
Language : English
Default : No
Forced : No

Text #4
ID : 6
Format : PGS
Muxing mode : zlib
Codec ID : S_HDMV/PGS
Duration : 2 h 20 min
Bit rate : 12.0 kb/s
Count of elements : 1264
Stream size : 12.0 MiB (1%)
Language : French
Default : No
Forced : No

Text #5
ID : 7
Format : PGS
Muxing mode : zlib
Codec ID : S_HDMV/PGS
Duration : 2 h 20 min
Bit rate : 16.3 kb/s
Count of elements : 1316
Stream size : 16.4 MiB (1%)
Language : German
Default : No
Forced : No

Text #6
ID : 8
Format : PGS
Muxing mode : zlib
Codec ID : S_HDMV/PGS
Duration : 2 h 20 min
Bit rate : 15.1 kb/s
Count of elements : 1342
Stream size : 15.2 MiB (1%)
Language : Italian
Default : No
Forced : No

Text #7
ID : 9
Format : PGS
Muxing mode : zlib
Codec ID : S_HDMV/PGS
Duration : 2 h 20 min
Bit rate : 13.4 kb/s
Count of elements : 1288
Stream size : 13.4 MiB (1%)
Language : Spanish
Default : No
Forced : No

Text #8
ID : 10
Format : PGS
Muxing mode : zlib
Codec ID : S_HDMV/PGS
Duration : 2 h 19 min
Bit rate : 11.0 kb/s
Count of elements : 900
Stream size : 10.9 MiB (1%)
Language : Dutch
Default : No
Forced : No

Text #9
ID : 11
Format : PGS
Muxing mode : zlib
Codec ID : S_HDMV/PGS
Duration : 2 h 20 min
Bit rate : 12.1 kb/s
Count of elements : 1350
Stream size : 12.2 MiB (1%)
Language : Chinese
Default : No
Forced : No

Text #10
ID : 12
Format : PGS
Muxing mode : zlib
Codec ID : S_HDMV/PGS
Duration : 2 h 20 min
Bit rate : 13.0 kb/s
Count of elements : 1326
Stream size : 13.0 MiB (1%)
Language : Chinese
Default : No
Forced : No

Text #11
ID : 13
Format : PGS
Muxing mode : zlib
Codec ID : S_HDMV/PGS
Duration : 2 h 20 min
Bit rate : 10.3 kb/s
Count of elements : 1328
Stream size : 10.3 MiB (1%)
Language : Korean
Default : No
Forced : No

Text #12
ID : 14
Format : PGS
Muxing mode : zlib
Codec ID : S_HDMV/PGS
Duration : 2 h 20 min
Bit rate : 12.1 kb/s
Count of elements : 1272
Stream size : 12.1 MiB (1%)
Language : Spanish
Default : No
Forced : No

Text #13
ID : 15
Format : PGS
Muxing mode : zlib
Codec ID : S_HDMV/PGS
Duration : 2 h 20 min
Bit rate : 13.5 kb/s
Count of elements : 1310
Stream size : 13.5 MiB (1%)
Language : Portuguese
Default : No
Forced : No

Text #14
ID : 16
Format : PGS
Muxing mode : zlib
Codec ID : S_HDMV/PGS
Duration : 2 h 20 min
Bit rate : 7 350 b/s
Count of elements : 1280
Stream size : 7.38 MiB (0%)
Language : Arabic
Default : No
Forced : No

Text #15
ID : 17
Format : PGS
Muxing mode : zlib
Codec ID : S_HDMV/PGS
Duration : 2 h 20 min
Bit rate : 13.1 kb/s
Count of elements : 1290
Stream size : 13.1 MiB (1%)
Language : Croatian
Default : No
Forced : No

Text #16
ID : 18
Format : PGS
Muxing mode : zlib
Codec ID : S_HDMV/PGS
Duration : 2 h 20 min
Bit rate : 11.9 kb/s
Count of elements : 1326
Stream size : 11.9 MiB (1%)
Language : Czech
Default : No
Forced : No

Text #17
ID : 19
Format : PGS
Muxing mode : zlib
Codec ID : S_HDMV/PGS
Duration : 2 h 20 min
Bit rate : 10.1 kb/s
Count of elements : 774
Stream size : 10.1 MiB (1%)
Language : Danish
Default : No
Forced : No

Text #18
ID : 20
Format : PGS
Muxing mode : zlib
Codec ID : S_HDMV/PGS
Duration : 2 h 20 min
Bit rate : 9 768 b/s
Count of elements : 750
Stream size : 9.80 MiB (1%)
Language : Finnish
Default : No
Forced : No

Text #19
ID : 21
Format : PGS
Muxing mode : zlib
Codec ID : S_HDMV/PGS
Duration : 2 h 20 min
Bit rate : 11.8 kb/s
Count of elements : 1192
Stream size : 11.8 MiB (1%)
Language : Greek
Default : No
Forced : No

Text #20
ID : 22
Format : PGS
Muxing mode : zlib
Codec ID : S_HDMV/PGS
Duration : 2 h 20 min
Bit rate : 8 357 b/s
Count of elements : 1248
Stream size : 8.38 MiB (1%)
Language : Hebrew
Default : No
Forced : No

Text #21
ID : 23
Format : PGS
Muxing mode : zlib
Codec ID : S_HDMV/PGS
Duration : 2 h 20 min
Bit rate : 13.0 kb/s
Count of elements : 1328
Stream size : 13.0 MiB (1%)
Language : Hungarian
Default : No
Forced : No

Text #22
ID : 24
Format : PGS
Muxing mode : zlib
Codec ID : S_HDMV/PGS
Duration : 2 h 19 min
Bit rate : 13.3 kb/s
Count of elements : 1288
Stream size : 13.2 MiB (1%)
Language : Icelandic
Default : No
Forced : No

Text #23
ID : 25
Format : PGS
Muxing mode : zlib
Codec ID : S_HDMV/PGS
Duration : 2 h 20 min
Bit rate : 9 972 b/s
Count of elements : 884
Stream size : 10.0 MiB (1%)
Language : Norwegian
Default : No
Forced : No

Text #24
ID : 26
Format : PGS
Muxing mode : zlib
Codec ID : S_HDMV/PGS
Duration : 2 h 20 min
Bit rate : 10.9 kb/s
Count of elements : 1284
Stream size : 10.9 MiB (1%)
Language : Polish
Default : No
Forced : No

Text #25
ID : 27
Format : PGS
Muxing mode : zlib
Codec ID : S_HDMV/PGS
Duration : 2 h 20 min
Bit rate : 14.6 kb/s
Count of elements : 1292
Stream size : 14.6 MiB (1%)
Language : Portuguese
Default : No
Forced : No

Text #26
ID : 28
Format : PGS
Muxing mode : zlib
Codec ID : S_HDMV/PGS
Duration : 2 h 20 min
Bit rate : 11.4 kb/s
Count of elements : 1280
Stream size : 11.4 MiB (1%)
Language : Romanian
Default : No
Forced : No

Text #27
ID : 29
Format : PGS
Muxing mode : zlib
Codec ID : S_HDMV/PGS
Duration : 2 h 20 min
Bit rate : 14.5 kb/s
Count of elements : 1304
Stream size : 14.5 MiB (1%)
Language : Russian
Default : No
Forced : No

Text #28
ID : 30
Format : PGS
Muxing mode : zlib
Codec ID : S_HDMV/PGS
Duration : 2 h 20 min
Bit rate : 9 079 b/s
Count of elements : 760
Stream size : 9.11 MiB (1%)
Language : Swedish
Default : No
Forced : No

Text #29
ID : 31
Format : PGS
Muxing mode : zlib
Codec ID : S_HDMV/PGS
Duration : 2 h 19 min
Bit rate : 13.4 kb/s
Count of elements : 1328
Stream size : 13.4 MiB (1%)
Language : Thai
Default : No
Forced : No

Text #30
ID : 32
Format : PGS
Muxing mode : zlib
Codec ID : S_HDMV/PGS
Duration : 2 h 19 min
Bit rate : 13.2 kb/s
Count of elements : 1288
Stream size : 13.2 MiB (1%)
Language : Turkish
Default : No
Forced : No

Text #31
ID : 33
Format : PGS
Muxing mode : zlib
Codec ID : S_HDMV/PGS
Duration : 2 h 24 min
Bit rate : 35.1 kb/s
Count of elements : 3293
Stream size : 36.3 MiB (2%)
Language : Chinese
Default : No
Forced : No

[collapse]
Download Link(s)

Download

Direct download files get automatically deleted after a month or so. Posted on : 04/06/2022

[collapse]
Magnet Link

Magnet

2001.A.Space.Odyssey.1968.REMASTERED.1080p.BluRay.x264.DTS-HD.MA.5.1-FGT-11.82 GB

[collapse]

You may also like...

error: nah :p~