The Nightmare Before Christmas (1993)

PG | 1h 16min | Animation, Family, Fantasy

Jack Skellington, king of Halloween Town, discovers Christmas Town, but his attempts to bring Christmas to his home causes confusion.

Watch trailer

Media information

General
Format : Matroska
Format version : Version 4
File size : 1.21 GiB
Duration : 1 h 16 min
Overall bit rate : 2 259 kb/s
Movie name : The.Nightmare.Before.Christmas.1993.1080p.10bit.BluRay.6CH.x265.HEVC

Video
ID : 1
Format : HEVC
Format/Info : High Efficiency Video Coding
Format profile : Main [email protected]@Main
Codec ID : V_MPEGH/ISO/HEVC
Duration : 1 h 16 min
Bit rate : 1 968 kb/s
Width : 1 800 pixels
Height : 1 080 pixels
Display aspect ratio : 5:3
Frame rate mode : Constant
Frame rate : 23.976 (24000/1001) FPS
Color space : YUV
Chroma subsampling : 4:2:0 (Type 0)
Bit depth : 10 bits
Bits/(Pixel*Frame) : 0.042
Stream size : 1.05 GiB (87%)
Default : Yes
Forced : No
Color range : Limited
Matrix coefficients : BT.709

Audio
ID : 2
Format : AAC LC
Codec ID : A_AAC-2
Duration : 1 h 16 min
Bit rate : 288 kb/s
Channel(s) : 6 channels
Channel layout : L R C Cb Lb Rb
Sampling rate : 48.0 kHz
Frame rate : 46.875 FPS (1024 SPF)
Compression mode : Lossy
Stream size : 158 MiB (13%)
Language : English
Default : Yes
Forced : No

Text
ID : 3
Format : UTF-8
Codec ID : S_TEXT/UTF8
Codec ID/Info : UTF-8 Plain Text
Duration : 1 h 10 min
Bit rate : 56 b/s
Frame rate : 0.197 FPS
Count of elements : 833
Stream size : 29.4 KiB (0%)
Language : English
Default : Yes
Forced : N

[collapse]

Download Link(s)

Download

Direct download files get automatically deleted after a month or so. Posted on : 11/03/2022

[collapse]
Magnet Link

Magnet

The.Nightmare.Before.Christmas.1993.1080p.BluRay.x264-NiP-6.50 GB

[collapse]

Media information

General
Format : Matroska
Format version : Version 4
File size : 614 MiB
Duration : 1 h 16 min
Overall bit rate : 1 119 kb/s
Movie name : The.Nightmare.Before.Christmas.1993.720p.10bit.BluRay.6CH.x265.HEVC

Video
ID : 1
Format : HEVC
Format/Info : High Efficiency Video Coding
Format profile : Main [email protected]@Main
Codec ID : V_MPEGH/ISO/HEVC
Duration : 1 h 16 min
Bit rate : 924 kb/s
Width : 1 280 pixels
Height : 768 pixels
Display aspect ratio : 5:3
Frame rate mode : Constant
Frame rate : 23.976 (24000/1001) FPS
Color space : YUV
Chroma subsampling : 4:2:0 (Type 0)
Bit depth : 10 bits
Bits/(Pixel*Frame) : 0.039
Stream size : 507 MiB (83%)
Default : Yes
Forced : No
Color range : Limited
Matrix coefficients : BT.709

Audio
ID : 2
Format : AAC LC
Codec ID : A_AAC-2
Duration : 1 h 16 min
Bit rate : 192 kb/s
Channel(s) : 6 channels
Channel layout : L R C Cb Lb Rb
Sampling rate : 48.0 kHz
Frame rate : 46.875 FPS (1024 SPF)
Compression mode : Lossy
Stream size : 106 MiB (17%)
Language : English
Default : Yes
Forced : No

Text
ID : 3
Format : UTF-8
Codec ID : S_TEXT/UTF8
Codec ID/Info : UTF-8 Plain Text
Duration : 1 h 10 min
Bit rate : 56 b/s
Frame rate : 0.197 FPS
Count of elements : 833
Stream size : 29.4 KiB (0%)
Language : English
Default : Yes
Forced : No

[collapse]

Download Link(s)

Download

Direct download files get automatically deleted after a month or so. Posted on : 11/03/2022

[collapse]
Magnet Link

Magnet

The.Nightmare.Before.Christmas.1993.1080p.BluRay.x264-NiP-6.50 GB

[collapse]

You may also like...

error: nah :p~