Mortal Kombat Legends: Snow Blind (2022)

R | 1h 22min | Animation, Action, Adventure

As Kano and the Black Dragon wreck havoc around the globe a young warrior named Kenshi will have to rise above his own limitations and take on the looming threat of Outworld.

Watch trailer

Media information

General
Format : Matroska
Format version : Version 4
File size : 1.30 GiB
Duration : 1 h 21 min
Overall bit rate : 2 277 kb/s
Movie name : Mortal.Kombat.Legends.Snow.Blind.2022.1080p.10bit.BluRay.6CH.x265.HEVC

Video
ID : 1
Format : HEVC
Format/Info : High Efficiency Video Coding
Format profile : Main [email protected]@Main
Codec ID : V_MPEGH/ISO/HEVC
Duration : 1 h 21 min
Bit rate : 2 064 kb/s
Width : 1 920 pixels
Height : 1 080 pixels
Display aspect ratio : 16:9
Frame rate mode : Constant
Frame rate : 23.976 (24000/1001) FPS
Color space : YUV
Chroma subsampling : 4:2:0
Bit depth : 10 bits
Bits/(Pixel*Frame) : 0.042
Stream size : 1.18 GiB (91%)
Default : Yes
Forced : No

Audio
ID : 2
Format : AAC LC SBR
Commercial name : HE-AAC
Format settings : Explicit
Codec ID : A_AAC-2
Duration : 1 h 21 min
Bit rate : 211 kb/s
Channel(s) : 6 channels
Channel layout : C L R Ls Rs LFE
Sampling rate : 48.0 kHz
Frame rate : 23.438 FPS (2048 SPF)
Compression mode : Lossy
Delay relative to video : 23 ms
Stream size : 124 MiB (9%)
Language : English
Default : Yes
Forced : No

Text #1
ID : 3
Format : UTF-8
Codec ID : S_TEXT/UTF8
Codec ID/Info : UTF-8 Plain Text
Duration : 1 h 16 min
Bit rate : 35 b/s
Frame rate : 0.163 FPS
Count of elements : 748
Stream size : 19.7 KiB (0%)
Language : English
Default : No
Forced : No

Text #2
ID : 4
Format : UTF-8
Codec ID : S_TEXT/UTF8
Codec ID/Info : UTF-8 Plain Text
Duration : 1 h 18 min
Bit rate : 46 b/s
Frame rate : 0.251 FPS
Count of elements : 1183
Stream size : 27.1 KiB (0%)
Title : SDH
Language : English
Default : Yes
Forced : No

[collapse]
Download Link(s)

Download

Direct download files get automatically deleted after a month or so. Posted on : 09/30/2022

[collapse]
Magnet Link

Magnet

Mortal.Kombat.Legends.Snow.Blind.2022.1080p.BluRay.x264.DTS-HD.MA.5.1-MT-10.91 GB

[collapse]

Media information

General
Format : Matroska
Format version : Version 4
File size : 588 MiB
Duration : 1 h 21 min
Overall bit rate : 1 003 kb/s
Movie name : Mortal.Kombat.Legends.Snow.Blind.2022.720p.10bit.BluRay.6CH.x265.HEVC

Video
ID : 1
Format : HEVC
Format/Info : High Efficiency Video Coding
Format profile : Main [email protected]@Main
Codec ID : V_MPEGH/ISO/HEVC
Duration : 1 h 21 min
Bit rate : 790 kb/s
Width : 1 280 pixels
Height : 720 pixels
Display aspect ratio : 16:9
Frame rate mode : Constant
Frame rate : 23.976 (24000/1001) FPS
Color space : YUV
Chroma subsampling : 4:2:0
Bit depth : 10 bits
Bits/(Pixel*Frame) : 0.036
Stream size : 463 MiB (79%)
Default : Yes
Forced : No

Audio
ID : 2
Format : AAC LC SBR
Commercial name : HE-AAC
Format settings : Explicit
Codec ID : A_AAC-2
Duration : 1 h 21 min
Bit rate : 211 kb/s
Channel(s) : 6 channels
Channel layout : C L R Ls Rs LFE
Sampling rate : 48.0 kHz
Frame rate : 23.438 FPS (2048 SPF)
Compression mode : Lossy
Delay relative to video : 23 ms
Stream size : 124 MiB (21%)
Language : English
Default : Yes
Forced : No

Text #1
ID : 3
Format : UTF-8
Codec ID : S_TEXT/UTF8
Codec ID/Info : UTF-8 Plain Text
Duration : 1 h 16 min
Bit rate : 35 b/s
Frame rate : 0.163 FPS
Count of elements : 748
Stream size : 19.7 KiB (0%)
Language : English
Default : No
Forced : No

Text #2
ID : 4
Format : UTF-8
Codec ID : S_TEXT/UTF8
Codec ID/Info : UTF-8 Plain Text
Duration : 1 h 18 min
Bit rate : 46 b/s
Frame rate : 0.251 FPS
Count of elements : 1183
Stream size : 27.1 KiB (0%)
Title : SDH
Language : English
Default : Yes
Forced : No

[collapse]
Download Link(s)

Download

Direct download files get automatically deleted after a month or so. Posted on : 09/30/2022

[collapse]
Magnet Link

Magnet

Mortal.Kombat.Legends.Snow.Blind.2022.1080p.BluRay.x264.DTS-HD.MA.5.1-MT-10.91 GB

[collapse]

You may also like...

error: nah :p~