Justice League: Crisis on Infinite Earths – Part Two (2024)

PG-13 | 1h 34min | Animation, Action, Adventure

The Anti-Monitor (the Monitor’s evil counterpart) is released into the DC Multiverse and begins to destroy the different Earths that compose it. The Monitor attempts to recruit heroes from across the Multiverse to fight back.

Watch trailer

Media information

General
Format : Matroska
Format version : Version 4
File size : 746 MiB
Duration : 1 h 34 min
Overall bit rate : 1 102 kb/s
Frame rate : 23.976 FPS
Movie name : Justice.League.Crisis.on.Infinite.Earths.Part.Two.2024.1080p.10bit.BluRay.6CH.x265.HEVC

Video
ID : 1
Format : HEVC
Format/Info : High Efficiency Video Coding
Format profile : Main 10@L4@Main
Codec ID : V_MPEGH/ISO/HEVC
Duration : 1 h 34 min
Bit rate : 898 kb/s
Width : 1 920 pixels
Height : 1 080 pixels
Display aspect ratio : 16:9
Frame rate mode : Constant
Frame rate : 23.976 (24000/1001) FPS
Color space : YUV
Chroma subsampling : 4:2:0
Bit depth : 10 bits
Bits/(Pixel*Frame) : 0.018
Stream size : 609 MiB (82%)
Default : Yes
Forced : No

Audio
ID : 2
Format : AAC LC SBR
Commercial name : HE-AAC
Format settings : Explicit
Codec ID : A_AAC-2
Duration : 1 h 34 min
Bit rate : 201 kb/s
Channel(s) : 6 channels
Channel layout : C L R Ls Rs LFE
Sampling rate : 48.0 kHz
Frame rate : 23.438 FPS (2048 SPF)
Compression mode : Lossy
Delay relative to video : 23 ms
Stream size : 136 MiB (18%)
Language : English
Default : Yes
Forced : No

Text
ID : 3
Format : UTF-8
Codec ID : S_TEXT/UTF8
Codec ID/Info : UTF-8 Plain Text
Duration : 1 h 29 min
Bit rate : 44 b/s
Frame rate : 0.182 FPS
Count of elements : 981
Stream size : 29.3 KiB (0%)
Language : English
Default : Yes
Forced : No

[collapse]
Download Link(s)

Download

Direct download files get automatically deleted after a month or so. Posted on : 04/24/2024

[collapse]
Magnet Link

Magnet

Justice.League.Crisis.on.Infinite.Earths.Part.Two.2024.1080p.10bit.BluRay.6CH.x265.HEVC-PSA-746.43 MB

[collapse]

Media information

General
Format : Matroska
Format version : Version 4
File size : 429 MiB
Duration : 1 h 34 min
Overall bit rate : 634 kb/s
Frame rate : 23.976 FPS
Movie name : Justice.League.Crisis.on.Infinite.Earths.Part.Two.2024.720p.10bit.BluRay.6CH.x265.HEVC

Video
ID : 1
Format : HEVC
Format/Info : High Efficiency Video Coding
Format profile : Main [email protected]@Main
Codec ID : V_MPEGH/ISO/HEVC
Duration : 1 h 34 min
Bit rate : 431 kb/s
Width : 1 280 pixels
Height : 720 pixels
Display aspect ratio : 16:9
Frame rate mode : Constant
Frame rate : 23.976 (24000/1001) FPS
Color space : YUV
Chroma subsampling : 4:2:0
Bit depth : 10 bits
Bits/(Pixel*Frame) : 0.019
Stream size : 292 MiB (68%)
Default : Yes
Forced : No

Audio
ID : 2
Format : AAC LC SBR
Commercial name : HE-AAC
Format settings : Explicit
Codec ID : A_AAC-2
Duration : 1 h 34 min
Bit rate : 201 kb/s
Channel(s) : 6 channels
Channel layout : C L R Ls Rs LFE
Sampling rate : 48.0 kHz
Frame rate : 23.438 FPS (2048 SPF)
Compression mode : Lossy
Delay relative to video : 23 ms
Stream size : 136 MiB (32%)
Language : English
Default : Yes
Forced : No

Text
ID : 3
Format : UTF-8
Codec ID : S_TEXT/UTF8
Codec ID/Info : UTF-8 Plain Text
Duration : 1 h 29 min
Bit rate : 44 b/s
Frame rate : 0.182 FPS
Count of elements : 981
Stream size : 29.3 KiB (0%)
Language : English
Default : Yes
Forced : No

[collapse]
Download Link(s)

Download

Direct download files get automatically deleted after a month or so. Posted on : 04/24/2024

[collapse]
Magnet Link

Magnet

Justice.League.Crisis.on.Infinite.Earths.Part.Two.2024.1080p.10bit.BluRay.6CH.x265.HEVC-PSA-746.43 MB

[collapse]

You may also like...

error: nah :p~