Jin-Roh: The Wolf Brigade (1999)

Original title: Jin-RĂ´ | R | 1h 43min | Animation, Action, Drama

A traumatized member of an elite para-military police force falls for the sister of a female terrorist courier who died in front of him on duty.

Watch trailer

Media information

General
Format : Matroska
Format version : Version 4
File size : 830 MiB
Duration : 1 h 42 min
Overall bit rate : 1 135 kb/s
Frame rate : 23.976 FPS
Movie name : Jin-Roh.The.Wolf.Brigade.1999.DUAL-AUDIO.JAP-ENG.1080p.10bit.BluRay.6CH.x265.HEVC

Video
ID : 1
Format : HEVC
Format/Info : High Efficiency Video Coding
Format profile : Main 10@L4@Main
Codec ID : V_MPEGH/ISO/HEVC
Duration : 1 h 42 min
Bit rate : 716 kb/s
Width : 1 828 pixels
Height : 988 pixels
Display aspect ratio : 1.85:1
Frame rate mode : Constant
Frame rate : 23.976 (24000/1001) FPS
Color space : YUV
Chroma subsampling : 4:2:0
Bit depth : 10 bits
Bits/(Pixel*Frame) : 0.017
Stream size : 523 MiB (63%)
Default : Yes
Forced : No

Audio #1
ID : 2
Format : AAC LC SBR
Commercial name : HE-AAC
Format settings : Explicit
Codec ID : A_AAC-2
Duration : 1 h 42 min
Bit rate : 207 kb/s
Channel(s) : 6 channels
Channel layout : C L R Ls Rs LFE
Sampling rate : 48.0 kHz
Frame rate : 23.438 FPS (2048 SPF)
Compression mode : Lossy
Delay relative to video : 23 ms
Stream size : 151 MiB (18%)
Language : Japanese
Default : Yes
Forced : No

Audio #2
ID : 3
Format : AAC LC SBR
Commercial name : HE-AAC
Format settings : Explicit
Codec ID : A_AAC-2
Duration : 1 h 42 min
Bit rate : 209 kb/s
Channel(s) : 6 channels
Channel layout : C L R Ls Rs LFE
Sampling rate : 48.0 kHz
Frame rate : 23.438 FPS (2048 SPF)
Compression mode : Lossy
Delay relative to video : 23 ms
Stream size : 153 MiB (18%)
Language : English
Default : No
Forced : No

Text #1
ID : 4
Format : UTF-8
Codec ID : S_TEXT/UTF8
Codec ID/Info : UTF-8 Plain Text
Duration : 1 h 36 min
Bit rate : 54 b/s
Frame rate : 0.212 FPS
Count of elements : 1225
Stream size : 38.4 KiB (0%)
Language : English
Default : Yes
Forced : No

Text #2
ID : 5
Format : ASS
Codec ID : S_TEXT/ASS
Duration : 30 min 55 s
Bit rate : 1 194 b/s
Frame rate : 1.416 FPS
Count of elements : 2628
Compression mode : Lossless
Stream size : 271 KiB (0%)
Title : Signs
Language : Japanese
Default : No
Forced : No

Text #3
ID : 6
Format : UTF-8
Codec ID : S_TEXT/UTF8
Codec ID/Info : UTF-8 Plain Text
Duration : 1 h 36 min
Bit rate : 130 b/s
Frame rate : 0.580 FPS
Count of elements : 3355
Stream size : 92.0 KiB (0%)
Title : English
Language : English
Default : No
Forced : No

Text #4
ID : 7
Format : UTF-8
Codec ID : S_TEXT/UTF8
Codec ID/Info : UTF-8 Plain Text
Duration : 30 min 55 s
Bit rate : 282 b/s
Frame rate : 1.416 FPS
Count of elements : 2628
Stream size : 64.0 KiB (0%)
Title : Signs
Language : Japanese
Default : No
Forced : No

[collapse]
Download Link(s)

Download

Direct download files get automatically deleted after a month or so. Posted on : 07/04/2024

[collapse]

Media information

General
Format : Matroska
Format version : Version 4
File size : 557 MiB
Duration : 1 h 42 min
Overall bit rate : 762 kb/s
Frame rate : 23.976 FPS
Movie name : Jin-Roh.The.Wolf.Brigade.1999.DUAL-AUDIO.JAP-ENG.720p.10bit.BluRay.6CH.x265.HEVC

Video
ID : 1
Format : HEVC
Format/Info : High Efficiency Video Coding
Format profile : Main [email protected]@Main
Codec ID : V_MPEGH/ISO/HEVC
Duration : 1 h 42 min
Bit rate : 343 kb/s
Width : 1 280 pixels
Height : 692 pixels
Display aspect ratio : 1.85:1
Frame rate mode : Constant
Frame rate : 23.976 (24000/1001) FPS
Color space : YUV
Chroma subsampling : 4:2:0
Bit depth : 10 bits
Bits/(Pixel*Frame) : 0.016
Stream size : 250 MiB (45%)
Default : Yes
Forced : No

Audio #1
ID : 2
Format : AAC LC SBR
Commercial name : HE-AAC
Format settings : Explicit
Codec ID : A_AAC-2
Duration : 1 h 42 min
Bit rate : 207 kb/s
Channel(s) : 6 channels
Channel layout : C L R Ls Rs LFE
Sampling rate : 48.0 kHz
Frame rate : 23.438 FPS (2048 SPF)
Compression mode : Lossy
Delay relative to video : 23 ms
Stream size : 151 MiB (27%)
Language : Japanese
Default : Yes
Forced : No

Audio #2
ID : 3
Format : AAC LC SBR
Commercial name : HE-AAC
Format settings : Explicit
Codec ID : A_AAC-2
Duration : 1 h 42 min
Bit rate : 209 kb/s
Channel(s) : 6 channels
Channel layout : C L R Ls Rs LFE
Sampling rate : 48.0 kHz
Frame rate : 23.438 FPS (2048 SPF)
Compression mode : Lossy
Delay relative to video : 23 ms
Stream size : 153 MiB (27%)
Language : English
Default : No
Forced : No

Text #1
ID : 4
Format : UTF-8
Codec ID : S_TEXT/UTF8
Codec ID/Info : UTF-8 Plain Text
Duration : 1 h 36 min
Bit rate : 54 b/s
Frame rate : 0.212 FPS
Count of elements : 1225
Stream size : 38.4 KiB (0%)
Language : English
Default : Yes
Forced : No

Text #2
ID : 5
Format : ASS
Codec ID : S_TEXT/ASS
Duration : 30 min 55 s
Bit rate : 1 194 b/s
Frame rate : 1.416 FPS
Count of elements : 2628
Compression mode : Lossless
Stream size : 271 KiB (0%)
Title : Signs
Language : Japanese
Default : No
Forced : No

Text #3
ID : 6
Format : UTF-8
Codec ID : S_TEXT/UTF8
Codec ID/Info : UTF-8 Plain Text
Duration : 1 h 36 min
Bit rate : 130 b/s
Frame rate : 0.580 FPS
Count of elements : 3355
Stream size : 92.0 KiB (0%)
Language : English
Default : No
Forced : No

Text #4
ID : 7
Format : UTF-8
Codec ID : S_TEXT/UTF8
Codec ID/Info : UTF-8 Plain Text
Duration : 30 min 55 s
Bit rate : 282 b/s
Frame rate : 1.416 FPS
Count of elements : 2628
Stream size : 64.0 KiB (0%)
Title : Signs
Language : Japanese
Default : No
Forced : No

[collapse]
Download Link(s)

Download

Direct download files get automatically deleted after a month or so. Posted on : 07/04/2024

[collapse]

Magnet Link

Magnet

hydes.Jin-Roh.-.The.Wolf.Brigade.2007.JP.BD.Remux-24.73 GB

[collapse]

You may also like...

error: nah :p~