Here We Are: Notes for Living on Planet Earth (2020)

36min | Animation, Short | 17 April 2020 (USA)

A precocious 7-year-old who, over the course of Earth Day, learns about the wonders of the planet from his parents and from a mysterious exhibit at the aptly titled Museum of Everything

Watch trailer

Media information

General
Format : Matroska
Format version : Version 4
File size : 441 MiB
Duration : 36 min 4 s
Overall bit rate : 1 707 kb/s
Movie name : Here.We.Are.Notes.for.Living.on.Planet.Earth.2020.1080p.10bit.WEBRip.6CH.x265.HEVC

Video
ID : 1
Format : HEVC
Format/Info : High Efficiency Video Coding
Format profile : Main [email protected]@Main
Codec ID : V_MPEGH/ISO/HEVC
Duration : 36 min 4 s
Bit rate : 1 439 kb/s
Width : 1 920 pixels
Height : 1 080 pixels
Display aspect ratio : 16:9
Frame rate mode : Constant
Frame rate : 23.976 (24000/1001) FPS
Original frame rate : 25.000 FPS
Color space : YUV
Chroma subsampling : 4:2:0
Bit depth : 10 bits
Bits/(Pixel*Frame) : 0.029
Stream size : 371 MiB (84%)
Default : Yes
Forced : No
Color range : Limited
Color primaries : BT.709
Transfer characteristics : BT.709
Matrix coefficients : BT.709

Audio
ID : 2
Format : AAC LC
Codec ID : A_AAC-2
Duration : 36 min 4 s
Bit rate : 265 kb/s
Channel(s) : 6 channels
Channel layout : C L R Ls Rs LFE
Sampling rate : 48.0 kHz
Frame rate : 46.875 FPS (1024 SPF)
Compression mode : Lossy
Delay relative to video : 9 ms
Stream size : 67.2 MiB (15%)
Language : English
Default : Yes
Forced : No

Text #1
ID : 3
Format : UTF-8
Codec ID : S_TEXT/UTF8
Codec ID/Info : UTF-8 Plain Text
Duration : 35 min 44 s
Bit rate : 77 b/s
Count of elements : 486
Stream size : 20.4 KiB (0%)
Language : Arabic
Default : No
Forced : No

Text #2
ID : 4
Format : UTF-8
Codec ID : S_TEXT/UTF8
Codec ID/Info : UTF-8 Plain Text
Duration : 35 min 44 s
Bit rate : 79 b/s
Count of elements : 487
Stream size : 20.8 KiB (0%)
Language : Bulgarian
Default : No
Forced : No

Text #3
ID : 5
Format : UTF-8
Codec ID : S_TEXT/UTF8
Codec ID/Info : UTF-8 Plain Text
Duration : 35 min 44 s
Bit rate : 49 b/s
Count of elements : 490
Stream size : 12.9 KiB (0%)
Language : Czech
Default : No
Forced : No

Text #4
ID : 6
Format : UTF-8
Codec ID : S_TEXT/UTF8
Codec ID/Info : UTF-8 Plain Text
Duration : 35 min 44 s
Bit rate : 48 b/s
Count of elements : 491
Stream size : 12.8 KiB (0%)
Language : Danish
Default : No
Forced : No

Text #5
ID : 7
Format : UTF-8
Codec ID : S_TEXT/UTF8
Codec ID/Info : UTF-8 Plain Text
Duration : 35 min 45 s
Bit rate : 55 b/s
Count of elements : 443
Stream size : 14.6 KiB (0%)
Language : German
Default : No
Forced : No

Text #6
ID : 8
Format : UTF-8
Codec ID : S_TEXT/UTF8
Codec ID/Info : UTF-8 Plain Text
Duration : 35 min 44 s
Bit rate : 89 b/s
Count of elements : 485
Stream size : 23.5 KiB (0%)
Language : Greek
Default : No
Forced : No

Text #7
ID : 9
Format : UTF-8
Codec ID : S_TEXT/UTF8
Codec ID/Info : UTF-8 Plain Text
Duration : 34 min 15 s
Bit rate : 60 b/s
Count of elements : 519
Stream size : 15.3 KiB (0%)
Language : English
Default : Yes
Forced : No

Text #8
ID : 10
Format : UTF-8
Codec ID : S_TEXT/UTF8
Codec ID/Info : UTF-8 Plain Text
Duration : 34 min 15 s
Bit rate : 56 b/s
Count of elements : 485
Stream size : 14.2 KiB (0%)
Language : English
Default : No
Forced : No

Text #9
ID : 11
Format : UTF-8
Codec ID : S_TEXT/UTF8
Codec ID/Info : UTF-8 Plain Text
Duration : 35 min 44 s
Bit rate : 55 b/s
Count of elements : 476
Stream size : 14.6 KiB (0%)
Language : Spanish
Default : No
Forced : No

Text #10
ID : 12
Format : UTF-8
Codec ID : S_TEXT/UTF8
Codec ID/Info : UTF-8 Plain Text
Duration : 35 min 46 s
Bit rate : 58 b/s
Count of elements : 491
Stream size : 15.3 KiB (0%)
Language : Spanish
Default : No
Forced : No

Text #11
ID : 13
Format : UTF-8
Codec ID : S_TEXT/UTF8
Codec ID/Info : UTF-8 Plain Text
Duration : 35 min 44 s
Bit rate : 49 b/s
Count of elements : 490
Stream size : 12.9 KiB (0%)
Language : Estonian
Default : No
Forced : No

Text #12
ID : 14
Format : UTF-8
Codec ID : S_TEXT/UTF8
Codec ID/Info : UTF-8 Plain Text
Duration : 35 min 44 s
Bit rate : 50 b/s
Count of elements : 492
Stream size : 13.3 KiB (0%)
Language : Finnish
Default : No
Forced : No

Text #13
ID : 15
Format : UTF-8
Codec ID : S_TEXT/UTF8
Codec ID/Info : UTF-8 Plain Text
Duration : 35 min 42 s
Bit rate : 56 b/s
Count of elements : 478
Stream size : 14.7 KiB (0%)
Language : French
Default : No
Forced : No

Text #14
ID : 16
Format : UTF-8
Codec ID : S_TEXT/UTF8
Codec ID/Info : UTF-8 Plain Text
Duration : 35 min 44 s
Bit rate : 75 b/s
Count of elements : 489
Stream size : 19.7 KiB (0%)
Language : Hebrew
Default : No
Forced : No

Text #15
ID : 17
Format : UTF-8
Codec ID : S_TEXT/UTF8
Codec ID/Info : UTF-8 Plain Text
Duration : 35 min 44 s
Bit rate : 143 b/s
Count of elements : 492
Stream size : 37.4 KiB (0%)
Language : Hindi
Default : No
Forced : No

Text #16
ID : 18
Format : UTF-8
Codec ID : S_TEXT/UTF8
Codec ID/Info : UTF-8 Plain Text
Duration : 35 min 44 s
Bit rate : 57 b/s
Count of elements : 492
Stream size : 14.9 KiB (0%)
Language : Hungarian
Default : No
Forced : No

Text #17
ID : 19
Format : UTF-8
Codec ID : S_TEXT/UTF8
Codec ID/Info : UTF-8 Plain Text
Duration : 35 min 44 s
Bit rate : 52 b/s
Count of elements : 490
Stream size : 13.8 KiB (0%)
Language : Indonesian
Default : No
Forced : No

Text #18
ID : 20
Format : UTF-8
Codec ID : S_TEXT/UTF8
Codec ID/Info : UTF-8 Plain Text
Duration : 35 min 44 s
Bit rate : 55 b/s
Count of elements : 476
Stream size : 14.6 KiB (0%)
Language : Italian
Default : No
Forced : No

Text #19
ID : 21
Format : UTF-8
Codec ID : S_TEXT/UTF8
Codec ID/Info : UTF-8 Plain Text
Duration : 35 min 45 s
Bit rate : 52 b/s
Count of elements : 452
Stream size : 13.6 KiB (0%)
Language : Japanese
Default : No
Forced : No

Text #20
ID : 22
Format : UTF-8
Codec ID : S_TEXT/UTF8
Codec ID/Info : UTF-8 Plain Text
Duration : 35 min 44 s
Bit rate : 51 b/s
Count of elements : 480
Stream size : 13.6 KiB (0%)
Language : Lithuanian
Default : No
Forced : No

Text #21
ID : 23
Format : UTF-8
Codec ID : S_TEXT/UTF8
Codec ID/Info : UTF-8 Plain Text
Duration : 35 min 44 s
Bit rate : 52 b/s
Count of elements : 485
Stream size : 13.8 KiB (0%)
Language : Latvian
Default : No
Forced : No

Text #22
ID : 24
Format : UTF-8
Codec ID : S_TEXT/UTF8
Codec ID/Info : UTF-8 Plain Text
Duration : 35 min 44 s
Bit rate : 54 b/s
Count of elements : 490
Stream size : 14.3 KiB (0%)
Language : Malay
Default : No
Forced : No

Text #23
ID : 25
Format : UTF-8
Codec ID : S_TEXT/UTF8
Codec ID/Info : UTF-8 Plain Text
Duration : 35 min 44 s
Bit rate : 48 b/s
Count of elements : 465
Stream size : 12.6 KiB (0%)
Language : Dutch
Default : No
Forced : No

Text #24
ID : 26
Format : UTF-8
Codec ID : S_TEXT/UTF8
Codec ID/Info : UTF-8 Plain Text
Duration : 35 min 44 s
Bit rate : 53 b/s
Count of elements : 492
Stream size : 13.9 KiB (0%)
Language : Norwegian Bokmal
Default : No
Forced : No

Text #25
ID : 27
Format : UTF-8
Codec ID : S_TEXT/UTF8
Codec ID/Info : UTF-8 Plain Text
Duration : 35 min 44 s
Bit rate : 50 b/s
Count of elements : 484
Stream size : 13.3 KiB (0%)
Language : Polish
Default : No
Forced : No

Text #26
ID : 28
Format : UTF-8
Codec ID : S_TEXT/UTF8
Codec ID/Info : UTF-8 Plain Text
Duration : 35 min 44 s
Bit rate : 52 b/s
Count of elements : 491
Stream size : 13.8 KiB (0%)
Language : Portuguese
Default : No
Forced : No

Text #27
ID : 29
Format : UTF-8
Codec ID : S_TEXT/UTF8
Codec ID/Info : UTF-8 Plain Text
Duration : 35 min 44 s
Bit rate : 53 b/s
Count of elements : 485
Stream size : 13.9 KiB (0%)
Language : Portuguese
Default : No
Forced : No

Text #28
ID : 30
Format : UTF-8
Codec ID : S_TEXT/UTF8
Codec ID/Info : UTF-8 Plain Text
Duration : 35 min 44 s
Bit rate : 85 b/s
Count of elements : 489
Stream size : 22.4 KiB (0%)
Language : Russian
Default : No
Forced : No

Text #29
ID : 31
Format : UTF-8
Codec ID : S_TEXT/UTF8
Codec ID/Info : UTF-8 Plain Text
Duration : 35 min 44 s
Bit rate : 46 b/s
Count of elements : 485
Stream size : 12.2 KiB (0%)
Language : Slovak
Default : No
Forced : No

Text #30
ID : 32
Format : UTF-8
Codec ID : S_TEXT/UTF8
Codec ID/Info : UTF-8 Plain Text
Duration : 35 min 44 s
Bit rate : 43 b/s
Count of elements : 488
Stream size : 11.3 KiB (0%)
Language : Slovenian
Default : No
Forced : No

Text #31
ID : 33
Format : UTF-8
Codec ID : S_TEXT/UTF8
Codec ID/Info : UTF-8 Plain Text
Duration : 35 min 44 s
Bit rate : 52 b/s
Count of elements : 491
Stream size : 13.8 KiB (0%)
Language : Swedish
Default : No
Forced : No

Text #32
ID : 34
Format : UTF-8
Codec ID : S_TEXT/UTF8
Codec ID/Info : UTF-8 Plain Text
Duration : 35 min 44 s
Bit rate : 147 b/s
Count of elements : 490
Stream size : 38.6 KiB (0%)
Language : Tamil
Default : No
Forced : No

Text #33
ID : 35
Format : UTF-8
Codec ID : S_TEXT/UTF8
Codec ID/Info : UTF-8 Plain Text
Duration : 35 min 44 s
Bit rate : 160 b/s
Count of elements : 490
Stream size : 42.0 KiB (0%)
Language : Telugu
Default : No
Forced : No

Text #34
ID : 36
Format : UTF-8
Codec ID : S_TEXT/UTF8
Codec ID/Info : UTF-8 Plain Text
Duration : 35 min 44 s
Bit rate : 118 b/s
Count of elements : 487
Stream size : 31.0 KiB (0%)
Language : Thai
Default : No
Forced : No

Text #35
ID : 37
Format : UTF-8
Codec ID : S_TEXT/UTF8
Codec ID/Info : UTF-8 Plain Text
Duration : 35 min 44 s
Bit rate : 78 b/s
Count of elements : 492
Stream size : 20.5 KiB (0%)
Language : Ukrainian
Default : No
Forced : No

Text #36
ID : 38
Format : UTF-8
Codec ID : S_TEXT/UTF8
Codec ID/Info : UTF-8 Plain Text
Duration : 35 min 44 s
Bit rate : 69 b/s
Count of elements : 492
Stream size : 18.3 KiB (0%)
Language : Vietnamese
Default : No
Forced : No

Text #37
ID : 39
Format : UTF-8
Codec ID : S_TEXT/UTF8
Codec ID/Info : UTF-8 Plain Text
Duration : 35 min 44 s
Bit rate : 48 b/s
Count of elements : 492
Stream size : 12.7 KiB (0%)
Language : Chinese
Default : No
Forced : No

Text #38
ID : 40
Format : UTF-8
Codec ID : S_TEXT/UTF8
Codec ID/Info : UTF-8 Plain Text
Duration : 35 min 44 s
Bit rate : 50 b/s
Count of elements : 492
Stream size : 13.1 KiB (0%)
Language : Chinese
Default : No
Forced : No

Text #39
ID : 41
Format : UTF-8
Codec ID : S_TEXT/UTF8
Codec ID/Info : UTF-8 Plain Text
Duration : 35 min 44 s
Bit rate : 48 b/s
Count of elements : 490
Stream size : 12.7 KiB (0%)
Language : Chinese
Default : No
Forced : No

[collapse]
Download Link(s)

Download

Direct download files get automatically deleted after a month or so. Posted on : 04/20/2020

[collapse]
Magnet Link

Magnet

Here.We.Are.Notes.for.Living.on.Planet.Earth.2020.1080p.WEB-DL.x265.HEVC.10bit-AAC-5-1-440.5 MB

[collapse]

You may also like...

error: nah :p~