Finding Dory (2016)

PG | 1h 37min | Animation, Adventure, Comedy | 17 June 2016 (USA)

Friendly but forgetful blue tang Dory begins a search for her long-lost parents, and everyone learns a few things about the real meaning of family along the way.

Watch trailer

Media information

General
Format : Matroska
Format version : Version 4
File size : 1.71 GiB
Duration : 1 h 37 min
Overall bit rate : 2 526 kb/s
Movie name : Finding.Dory.2016.2160p.10bit.HDR.BluRay.8CH.x265.HEVC

Video
ID : 1
Format : HEVC
Format/Info : High Efficiency Video Coding
Format profile : Main [email protected]@Main
HDR format : SMPTE ST 2086, HDR10 compatible
Codec ID : V_MPEGH/ISO/HEVC
Duration : 1 h 37 min
Bit rate : 2 140 kb/s
Width : 3 840 pixels
Height : 2 160 pixels
Display aspect ratio : 16:9
Frame rate mode : Constant
Frame rate : 23.976 (24000/1001) FPS
Color space : YUV
Chroma subsampling : 4:2:0
Bit depth : 10 bits
Bits/(Pixel*Frame) : 0.011
Stream size : 1.45 GiB (85%)
Default : Yes
Forced : No
Color range : Limited
Color primaries : BT.2020
Transfer characteristics : PQ
Matrix coefficients : BT.2020 non-constant
Mastering display color primaries : Display P3
Mastering display luminance : min: 0.0001 cd/m2, max: 1000 cd/m2
Maximum Content Light Level : 4000 cd/m2
Maximum Frame-Average Light Level : 1000 cd/m2

Audio
ID : 2
Format : AAC LC
Codec ID : A_AAC-2
Duration : 1 h 37 min
Bit rate : 384 kb/s
Channel(s) : 8 channels
Channel layout : C L R Ls Rs Lw Rw LFE
Sampling rate : 48.0 kHz
Frame rate : 46.875 FPS (1024 SPF)
Compression mode : Lossy
Delay relative to video : -21 ms
Stream size : 267 MiB (15%)
Language : English
Default : Yes
Forced : No

Text
ID : 3
Format : UTF-8
Codec ID : S_TEXT/UTF8
Codec ID/Info : UTF-8 Plain Text
Duration : 1 h 35 min
Bit rate : 85 b/s
Count of elements : 1575
Stream size : 59.6 KiB (0%)
Language : English
Default : Yes
Forced : No

[collapse]
Download Link(s)

Download

Direct download files get automatically deleted after a month or so. Posted on : 02/24/2021

[collapse]
Magnet Link

Magnet

Finding.Dory.2016.2160p.UHD.BluRay.X265.10bit.HDR.TrueHD.7.1.Atmos-TERMiNAL-14.92 GB

[collapse]

Media information

General
Format : Matroska
Format version : Version 4
File size : 1.04 GiB
Duration : 1 h 37 min
Overall bit rate : 1 539 kb/s
Movie name : Finding.Dory.2016.1080p.10bit.BluRay.8CH.x265.HEVC

Video
ID : 1
Format : HEVC
Format/Info : High Efficiency Video Coding
Format profile : Main [email protected]@Main
Codec ID : V_MPEGH/ISO/HEVC
Duration : 1 h 37 min
Bit rate : 1 216 kb/s
Width : 1 920 pixels
Height : 1 080 pixels
Display aspect ratio : 16:9
Frame rate mode : Constant
Frame rate : 23.976 (24000/1001) FPS
Color space : YUV
Chroma subsampling : 4:2:0
Bit depth : 10 bits
Bits/(Pixel*Frame) : 0.024
Stream size : 844 MiB (79%)
Default : Yes
Forced : No
Color range : Limited
Color primaries : BT.2020
Transfer characteristics : PQ
Matrix coefficients : BT.2020 non-constant

Audio
ID : 2
Format : AAC LC
Codec ID : A_AAC-2
Duration : 1 h 37 min
Bit rate : 320 kb/s
Channel(s) : 8 channels
Channel layout : C L R Ls Rs Lw Rw LFE
Sampling rate : 48.0 kHz
Frame rate : 46.875 FPS (1024 SPF)
Compression mode : Lossy
Delay relative to video : -21 ms
Stream size : 222 MiB (21%)
Language : English
Default : Yes
Forced : No

Text
ID : 3
Format : UTF-8
Codec ID : S_TEXT/UTF8
Codec ID/Info : UTF-8 Plain Text
Duration : 1 h 35 min
Bit rate : 85 b/s
Count of elements : 1575
Stream size : 59.6 KiB (0%)
Language : English
Default : Yes
Forced : No

[collapse]
Download Link(s)

Download

Direct download files get automatically deleted after a month or so. Posted on : 02/24/2021

[collapse]
Magnet Link

Magnet

Finding.Dory.2016.2160p.UHD.BluRay.X265.10bit.HDR.TrueHD.7.1.Atmos-TERMiNAL-14.92 GB

[collapse]

Media information

General
Format : Matroska
Format version : Version 4
File size : 720 MiB
Duration : 1 h 37 min
Overall bit rate : 1 038 kb/s
Movie name : Finding.Dory.2016.720p.10bit.BluRay.6CH.x265.HEVC

Video
ID : 1
Format : HEVC
Format/Info : High Efficiency Video Coding
Format profile : Main [email protected]@Main
Codec ID : V_MPEGH/ISO/HEVC
Duration : 1 h 37 min
Bit rate : 843 kb/s
Width : 1 280 pixels
Height : 720 pixels
Display aspect ratio : 16:9
Frame rate mode : Constant
Frame rate : 23.976 (24000/1001) FPS
Color space : YUV
Chroma subsampling : 4:2:0
Bit depth : 10 bits
Bits/(Pixel*Frame) : 0.038
Stream size : 585 MiB (81%)
Default : Yes
Forced : No
Color range : Limited
Color primaries : BT.2020
Transfer characteristics : PQ
Matrix coefficients : BT.2020 non-constant

Audio
ID : 2
Format : AAC LC
Codec ID : A_AAC-2
Duration : 1 h 37 min
Bit rate : 192 kb/s
Channel(s) : 6 channels
Channel layout : C L R Ls Rs LFE
Sampling rate : 48.0 kHz
Frame rate : 46.875 FPS (1024 SPF)
Compression mode : Lossy
Delay relative to video : -21 ms
Stream size : 134 MiB (19%)
Language : English
Default : Yes
Forced : No

Text
ID : 3
Format : UTF-8
Codec ID : S_TEXT/UTF8
Codec ID/Info : UTF-8 Plain Text
Duration : 1 h 35 min
Bit rate : 85 b/s
Count of elements : 1575
Stream size : 59.6 KiB (0%)
Language : English
Default : Yes
Forced : No

[collapse]
Download Link(s)

Download

Direct download files get automatically deleted after a month or so. Posted on : 02/24/2021

[collapse]
Magnet Link

Magnet

Finding.Dory.2016.2160p.UHD.BluRay.X265.10bit.HDR.TrueHD.7.1.Atmos-TERMiNAL-14.92 GB

[collapse]

You may also like...

error: nah :p~