Demon Slayer: Mugen Train (2020)

Kimetsu no Yaiba: Mugen Ressha-Hen (original title)|R | 1h 57min | Animation, Action, Adventure | 23 April 2021 (USA)

After his family was brutally murdered and his sister turned into a demon, Tanjiro Kamado’s journey as a demon slayer began. Tanjiro and his comrades embark on a new mission aboard the Mugen Train, on track to despair.

Watch trailer

Media information

General
Format : Matroska
Format version : Version 4
File size : 1.70 GiB
Duration : 1 h 56 min
Overall bit rate : 2 081 kb/s
Movie name : Demon.Slayer.Mugen.Train.2020.1080p.10bit.BluRay.6CH.x265.HEVC

Video
ID : 1
Format : HEVC
Format/Info : High Efficiency Video Coding
Format profile : Main 10@L4@Main
Codec ID : V_MPEGH/ISO/HEVC
Duration : 1 h 56 min
Bit rate : 1 768 kb/s
Width : 1 920 pixels
Height : 1 080 pixels
Display aspect ratio : 16:9
Frame rate mode : Variable
Frame rate : 23.976 FPS
Color space : YUV
Chroma subsampling : 4:2:0 (Type 0)
Bit depth : 10 bits
Bits/(Pixel*Frame) : 0.036
Stream size : 1.44 GiB (85%)
Default : Yes
Forced : No
Color range : Limited

Audio
ID : 2
Format : AAC LC
Codec ID : A_AAC-2
Duration : 1 h 56 min
Bit rate : 288 kb/s
Channel(s) : 6 channels
Channel layout : L R C Cb Lb Rb
Sampling rate : 48.0 kHz
Frame rate : 46.875 FPS (1024 SPF)
Compression mode : Lossy
Stream size : 239 MiB (14%)
Language : Japanese
Default : Yes
Forced : No

Text #1
ID : 3
Format : PGS
Muxing mode : zlib
Codec ID : S_HDMV/PGS
Duration : 1 h 55 min
Bit rate : 31.4 kb/s
Count of elements : 2902
Stream size : 26.0 MiB (1%)
Language : English
Default : Yes
Forced : No

Text #2
ID : 4
Format : PGS
Muxing mode : zlib
Codec ID : S_HDMV/PGS
Duration : 1 h 55 min
Bit rate : 30.5 kb/s
Count of elements : 3088
Stream size : 25.3 MiB (1%)
Language : Japanese
Default : No
Forced : No

[collapse]
Download Link(s)

Download

Direct download files get automatically deleted after a month or so. Posted on : 06/24/2021

[collapse]
Magnet Link

Magnet

Demon.Slayer.Mugen.Train.2020.1080p.BluRay.x265.HEVC.10bit.EAC3.5.1.Japanese-3.8 GB

[collapse]

Media information

General
Format : Matroska
Format version : Version 4
File size : 863 MiB
Duration : 1 h 56 min
Overall bit rate : 1 034 kb/s
Movie name : Demon.Slayer.Mugen.Train.2020.720p.10bit.BluRay.6CH.x265.HEVC

Video
ID : 1
Format : HEVC
Format/Info : High Efficiency Video Coding
Format profile : Main [email protected]@Main
Codec ID : V_MPEGH/ISO/HEVC
Duration : 1 h 56 min
Bit rate : 816 kb/s
Width : 1 280 pixels
Height : 720 pixels
Display aspect ratio : 16:9
Frame rate mode : Variable
Frame rate : 23.976 FPS
Color space : YUV
Chroma subsampling : 4:2:0 (Type 0)
Bit depth : 10 bits
Bits/(Pixel*Frame) : 0.037
Stream size : 682 MiB (79%)
Default : Yes
Forced : No
Color range : Limited

Audio
ID : 2
Format : AAC LC
Codec ID : A_AAC-2
Duration : 1 h 56 min
Bit rate : 192 kb/s
Channel(s) : 6 channels
Channel layout : L R C Cb Lb Rb
Sampling rate : 48.0 kHz
Frame rate : 46.875 FPS (1024 SPF)
Compression mode : Lossy
Stream size : 160 MiB (18%)
Language : Japanese
Default : Yes
Forced : No

Text #1
ID : 3
Format : PGS
Muxing mode : zlib
Codec ID : S_HDMV/PGS
Duration : 1 h 55 min
Bit rate : 31.4 kb/s
Count of elements : 2902
Stream size : 26.0 MiB (3%)
Language : English
Default : Yes
Forced : No

Text #2
ID : 4
Format : PGS
Muxing mode : zlib
Codec ID : S_HDMV/PGS
Duration : 1 h 55 min
Bit rate : 30.5 kb/s
Count of elements : 3088
Stream size : 25.3 MiB (3%)
Language : Japanese
Default : No
Forced : No

[collapse]
Download Link(s)

Download

Direct download files get automatically deleted after a month or so. Posted on : 06/24/2021

[collapse]
Magnet Link

Magnet

Demon.Slayer.Mugen.Train.2020.1080p.BluRay.x265.HEVC.10bit.EAC3.5.1.Japanese-3.8 GB

[collapse]

Media information

General
Format : Matroska
Format version : Version 4
File size : 1.85 GiB
Duration : 2 h 0 min
Overall bit rate : 2 198 kb/s
Movie name : Demon.Slayer.the.Movie.Mugen.Train.2020.DUAL-AUDIO.JPN-ENG.1080p.10bit.WEBRip.2CH.x265.HEVC

Video
ID : 1
Format : HEVC
Format/Info : High Efficiency Video Coding
Format profile : Main 10@L4@Main
Codec ID : V_MPEGH/ISO/HEVC
Duration : 1 h 56 min
Bit rate : 1 625 kb/s
Width : 1 920 pixels
Height : 1 080 pixels
Display aspect ratio : 16:9
Frame rate mode : Constant
Frame rate : 23.976 (24000/1001) FPS
Color space : YUV
Chroma subsampling : 4:2:0 (Type 0)
Bit depth : 10 bits
Bits/(Pixel*Frame) : 0.033
Stream size : 1.33 GiB (72%)
Default : Yes
Forced : No
Color range : Limited
Color primaries : BT.709
Transfer characteristics : BT.709
Matrix coefficients : BT.709

Audio #1
ID : 2
Format : AAC LC
Codec ID : A_AAC-2
Duration : 1 h 56 min
Bit rate : 312 kb/s
Channel(s) : 2 channels
Channel layout : L R
Sampling rate : 48.0 kHz
Frame rate : 46.875 FPS (1024 SPF)
Compression mode : Lossy
Delay relative to video : 828 ms
Stream size : 261 MiB (14%)
Language : Japanese
Default : Yes
Forced : No

Audio #2
ID : 3
Format : AAC LC
Codec ID : A_AAC-2
Duration : 2 h 0 min
Bit rate : 317 kb/s
Channel(s) : 2 channels
Channel layout : L R
Sampling rate : 48.0 kHz
Frame rate : 46.875 FPS (1024 SPF)
Compression mode : Lossy
Delay relative to video : 6 s 700 ms
Stream size : 273 MiB (14%)
Language : English
Default : No
Forced : No

Text
ID : 4
Format : UTF-8
Codec ID : S_TEXT/UTF8
Codec ID/Info : UTF-8 Plain Text
Duration : 1 h 51 min
Bit rate : 45 b/s
Count of elements : 1605
Stream size : 37.2 KiB (0%)
Language : English
Default : Yes
Forced : No

[collapse]
Download Link(s)

Download

Direct download files get automatically deleted after a month or so. Posted on : 06/12/2021

[collapse]
Magnet Link

Magnet

Demon.Slayer.the.Movie.Mugen.Train.2020.1080p.PSN.WEBRip.AAC2.0.x264-NOGRP-3.80 GB

[collapse]

Media information

General
Format : Matroska
Format version : Version 4
File size : 1.11 GiB
Duration : 2 h 0 min
Overall bit rate : 1 314 kb/s
Movie name : Demon.Slayer.the.Movie.Mugen.Train.2020.DUAL-AUDIO.JPN-ENG.720p.10bit.WEBRip.2CH.x265.HEVC

Video
ID : 1
Format : HEVC
Format/Info : High Efficiency Video Coding
Format profile : Main [email protected]@Main
Codec ID : V_MPEGH/ISO/HEVC
Duration : 1 h 56 min
Bit rate : 713 kb/s
Width : 1 280 pixels
Height : 720 pixels
Display aspect ratio : 16:9
Frame rate mode : Constant
Frame rate : 23.976 (24000/1001) FPS
Color space : YUV
Chroma subsampling : 4:2:0 (Type 0)
Bit depth : 10 bits
Bits/(Pixel*Frame) : 0.032
Stream size : 595 MiB (53%)
Default : Yes
Forced : No
Color range : Limited
Color primaries : BT.709
Transfer characteristics : BT.709
Matrix coefficients : BT.709

Audio #1
ID : 2
Format : AAC LC
Codec ID : A_AAC-2
Duration : 1 h 56 min
Bit rate : 312 kb/s
Channel(s) : 2 channels
Channel layout : L R
Sampling rate : 48.0 kHz
Frame rate : 46.875 FPS (1024 SPF)
Compression mode : Lossy
Delay relative to video : 828 ms
Stream size : 261 MiB (23%)
Language : Japanese
Default : Yes
Forced : No

Audio #2
ID : 3
Format : AAC LC
Codec ID : A_AAC-2
Duration : 2 h 0 min
Bit rate : 317 kb/s
Channel(s) : 2 channels
Channel layout : L R
Sampling rate : 48.0 kHz
Frame rate : 46.875 FPS (1024 SPF)
Compression mode : Lossy
Delay relative to video : 6 s 700 ms
Stream size : 273 MiB (24%)
Language : English
Default : No
Forced : No

Text
ID : 4
Format : UTF-8
Codec ID : S_TEXT/UTF8
Codec ID/Info : UTF-8 Plain Text
Duration : 1 h 51 min
Bit rate : 45 b/s
Count of elements : 1605
Stream size : 37.2 KiB (0%)
Language : English
Default : Yes
Forced : No

[collapse]
Download Link(s)

Download

Direct download files get automatically deleted after a month or so. Posted on : 06/12/2021

[collapse]
Magnet Link

Magnet

Demon.Slayer.the.Movie.Mugen.Train.2020.1080p.PSN.WEBRip.AAC2.0.x264-NOGRP-3.80 GB

[collapse]

You may also like...

error: nah :p~