Ainbo (2021)

Original title: AINBO: Spirit of the Amazon | 1h 24min | Animation, Adventure, Comedy

In the spirit of Moana and Frozen, ‘Ainbo – Spirit of the Amazon’ is the epic journey of a young hero and her Spirit Guides, “Dillo” a cute and humorous armadillo and “Vaca” a goofy oversized tapir, who embark on a quest to save their home in the spectacular Amazon Rainforest.

Watch trailer

Media information

General
Format : Matroska
Format version : Version 4
File size : 1.31 GiB
Duration : 1 h 24 min
Overall bit rate : 2 223 kb/s
Movie name : Ainbo.2021.1080p.10bit.WEB-DL.6CH.x265.HEVC

Video
ID : 1
Format : HEVC
Format/Info : High Efficiency Video Coding
Format profile : Main [email protected]@Main
Codec ID : V_MPEGH/ISO/HEVC
Duration : 1 h 24 min
Bit rate : 1 837 kb/s
Width : 1 920 pixels
Height : 804 pixels
Display aspect ratio : 2.40:1
Frame rate mode : Variable
Frame rate : 24.000 FPS
Color space : YUV
Chroma subsampling : 4:2:0 (Type 2)
Bit depth : 10 bits
Bits/(Pixel*Frame) : 0.050
Stream size : 1.08 GiB (83%)
Default : Yes
Forced : No
Color range : Limited
Color primaries : BT.709
Transfer characteristics : BT.709
Matrix coefficients : BT.709

Audio
ID : 2
Format : AAC LC
Codec ID : A_AAC-2
Duration : 1 h 24 min
Bit rate : 384 kb/s
Channel(s) : 6 channels
Channel layout : L R C Cb Lb Rb
Sampling rate : 48.0 kHz
Frame rate : 46.875 FPS (1024 SPF)
Compression mode : Lossy
Stream size : 231 MiB (17%)
Language : English
Default : Yes
Forced : No

Text
ID : 3
Format : UTF-8
Codec ID : S_TEXT/UTF8
Codec ID/Info : UTF-8 Plain Text
Duration : 1 h 21 min
Bit rate : 49 b/s
Count of elements : 1038
Stream size : 29.9 KiB (0%)
Language : English
Default : Yes
Forced : No

[collapse]
Download Link(s)

Download

Direct download files get automatically deleted after a month or so. Posted on : 07/11/2021

[collapse]
Magnet Link

Magnet

Ainbo.2021.1080p.WEB.DL.DD5.1.H.264.EVO-4.1 GB

[collapse]

Release Notes

Subs uploader remarks:
Translated from Arabic
Be aware: Subtitles contain swearwords that are not suitable for children

[collapse]

Media information

General
Format : Matroska
Format version : Version 4
File size : 605 MiB
Duration : 1 h 24 min
Overall bit rate : 1 003 kb/s
Movie name : Ainbo.2021.720p.10bit.WEB-DL.6CH.x265.HEVC

Video
ID : 1
Format : HEVC
Format/Info : High Efficiency Video Coding
Format profile : Main [email protected]@Main
Codec ID : V_MPEGH/ISO/HEVC
Duration : 1 h 24 min
Bit rate : 713 kb/s
Width : 1 280 pixels
Height : 536 pixels
Display aspect ratio : 2.40:1
Frame rate mode : Variable
Frame rate : 24.000 FPS
Color space : YUV
Chroma subsampling : 4:2:0 (Type 2)
Bit depth : 10 bits
Bits/(Pixel*Frame) : 0.043
Stream size : 430 MiB (71%)
Default : Yes
Forced : No
Color range : Limited
Color primaries : BT.709
Transfer characteristics : BT.709
Matrix coefficients : BT.709

Audio
ID : 2
Format : AAC LC
Codec ID : A_AAC-2
Duration : 1 h 24 min
Bit rate : 288 kb/s
Channel(s) : 6 channels
Channel layout : L R C Cb Lb Rb
Sampling rate : 48.0 kHz
Frame rate : 46.875 FPS (1024 SPF)
Compression mode : Lossy
Stream size : 174 MiB (29%)
Language : English
Default : Yes
Forced : No

Text
ID : 3
Format : UTF-8
Codec ID : S_TEXT/UTF8
Codec ID/Info : UTF-8 Plain Text
Duration : 1 h 21 min
Bit rate : 49 b/s
Count of elements : 1038
Stream size : 29.9 KiB (0%)
Language : English
Default : Yes
Forced : No

[collapse]
Download Link(s)

Download

Direct download files get automatically deleted after a month or so. Posted on : 07/11/2021

[collapse]
Magnet Link

Magnet

Ainbo.2021.1080p.WEB.DL.DD5.1.H.264.EVO-4.1 GB

[collapse]

Release Notes

Subs uploader remarks:
Translated from Arabic
Be aware: Subtitles contain swearwords that are not suitable for children

[collapse]

You may also like...

error: nah :p~